<svg xmlns="http://www.w3.org/2000/svg">
<defs>
<font id="AmnestyTradeGothic-Cn18" horiz-adv-x="444" >
  <font-face 
    font-family="Amnesty Trade Gothic Cn"
    font-weight="400"
    font-stretch="condensed"
    units-per-em="1000"
    panose-1="2 11 5 6 4 3 3 2 0 4"
    ascent="722"
    descent="-278"
    x-height="520"
    cap-height="722"
    bbox="-167 -216 1000 950"
    underline-thickness="50"
    underline-position="-125"
    unicode-range="U+000D-FB02"
  />
<missing-glyph horiz-adv-x="512" 
d="M222 117v67h56v-67h-56zM225 234l-2 17q0 55 13 81t46 59q32 31 41 47.5t9 35.5q0 36 -22.5 60.5t-53.5 24.5t-53.5 -22t-28.5 -73l-50 8q7 71 44 104t91 33q53 0 88.5 -36t35.5 -95q0 -32 -12.5 -58.5t-50.5 -61.5q-37 -33 -43 -52t-6 -72h-46zM462 50v617h-412v-617
h412zM512 718v-718h-512v718h512z" />
    <glyph glyph-name="IJ" unicode="IJ" horiz-adv-x="490" 
d="M150 722v-722h-78v722h78zM424 722v-542q0 -56 -10 -92.5t-31 -58t-55 -30.5t-82 -9q-8 0 -18.5 2t-21.5 4l6 68q22 -8 45 -8q48 0 68.5 23t20.5 83v560h78z" />
    <glyph glyph-name="ij" unicode="ij" horiz-adv-x="430" 
d="M75 722h72v-84h-72v84zM75 520h72v-520h-72v520zM286 722h72v-84h-72v84zM212 -106q7 -2 13 -3t11 -1q24 0 37 14.5t13 49.5v566h72v-572q0 -65 -26 -91.5t-80 -26.5q-10 0 -19.5 1t-20.5 3v60z" />
    <glyph glyph-name="napostrophe" unicode="&#x22;n" horiz-adv-x="494" 
d="M122 520h68v-57q26 26 59 46.5t59 20.5q54 0 84 -32t30 -104v-394h-72v384q0 45 -14 65.5t-43 20.5q-26 0 -50.5 -17t-48.5 -47v-406h-72v520zM79 722v-100l-60 -144h-30l46 150h-40v94h84z" />
    <glyph glyph-name="fi" unicode="fi" 
d="M307 722h72v-84h-72v84zM307 520h72v-520h-72v520zM2 520h80v106q0 53 23.5 79.5t82.5 26.5q14 0 28.5 -2t27.5 -4v-56q-17 8 -39 8q-26 0 -38.5 -15t-12.5 -40v-103h84v-60h-84v-460h-72v460h-80v60z" />
    <glyph glyph-name="fl" unicode="fl" 
d="M307 722h72v-722h-72v722zM2 520h80v106q0 53 23.5 79.5t82.5 26.5q14 0 28.5 -2t27.5 -4v-56q-17 8 -39 8q-26 0 -38.5 -15t-12.5 -40v-103h84v-60h-84v-460h-72v460h-80v60z" />
    <glyph glyph-name=".notdef" horiz-adv-x="512" 
d="M222 117v67h56v-67h-56zM225 234l-2 17q0 55 13 81t46 59q32 31 41 47.5t9 35.5q0 36 -22.5 60.5t-53.5 24.5t-53.5 -22t-28.5 -73l-50 8q7 71 44 104t91 33q53 0 88.5 -36t35.5 -95q0 -32 -12.5 -58.5t-50.5 -61.5q-37 -33 -43 -52t-6 -72h-46zM462 50v617h-412v-617
h412zM512 718v-718h-512v718h512z" />
    <glyph glyph-name="nonmarkingreturn" unicode="&#xd;" horiz-adv-x="278" 
 />
    <glyph glyph-name="space" unicode=" " horiz-adv-x="222" 
 />
    <glyph glyph-name="exclam" unicode="!" horiz-adv-x="333" 
d="M208 94v-94h-84v94h84zM124 722h84l-16 -508h-52z" />
    <glyph glyph-name="quotedbl" unicode="&#x22;" horiz-adv-x="333" 
d="M199 722h62v-256h-62v256zM72 722h62v-256h-62v256z" />
    <glyph glyph-name="numbersign" unicode="#" 
d="M184 439l-18 -156h100l17 156h-99zM402 227h-84l-25 -227h-59l25 227h-99l-25 -227h-59l26 227h-84v56h90l18 156h-83v56h88l26 227h58l-25 -227h99l25 227h59l-26 -227h79v-56h-84l-18 -156h78v-56z" />
    <glyph glyph-name="dollar" unicode="$" 
d="M192 662q-35 -8 -55.5 -35.5t-20.5 -65.5q0 -39 22 -67t54 -52v220zM242 60q43 4 67.5 35.5t24.5 80.5q0 47 -27 81t-65 63v-260zM110 198q2 -51 19.5 -88t62.5 -50v294q-27 18 -53.5 38t-47.5 43.5t-34 52.5t-13 65q0 34 11 63t30.5 51.5t46.5 36.5t60 18v96h50v-96
q74 -11 112 -63.5t40 -128.5h-72q-1 21 -6 41.5t-15 38.5t-24.5 32t-34.5 20v-255q29 -20 58 -41t52.5 -48t38.5 -60.5t15 -78.5q0 -78 -45 -125t-119 -54v-116h-50v116q-75 11 -114.5 65t-39.5 133h72z" />
    <glyph glyph-name="percent" unicode="%" horiz-adv-x="778" 
d="M106 566q0 -19 7.5 -36.5t20 -30.5t30 -21t38.5 -8t38.5 8t30 21t20 30.5t7.5 36.5t-7.5 36.5t-20 30.5t-30 21t-38.5 8t-38.5 -8t-30 -21t-20 -30.5t-7.5 -36.5zM444 156q0 -19 7.5 -36.5t20 -30.5t30 -21t38.5 -8t38.5 8t30 21t20 30.5t7.5 36.5t-7.5 36.5t-20 30.5
t-30 21t-38.5 8t-38.5 -8t-30 -21t-20 -30.5t-7.5 -36.5zM612 732l-414 -742h-58l414 742h58zM46 566q0 32 12 60.5t33 49.5t49.5 33.5t61.5 12.5t61.5 -12.5t49.5 -33.5t33 -49.5t12 -60.5t-12 -60.5t-33 -49.5t-49.5 -33.5t-61.5 -12.5t-61.5 12.5t-49.5 33.5t-33 49.5
t-12 60.5zM384 156q0 32 12 60.5t33 49.5t49.5 33.5t61.5 12.5t61.5 -12.5t49.5 -33.5t33 -49.5t12 -60.5t-12 -60.5t-33 -49.5t-49.5 -33.5t-61.5 -12.5t-61.5 12.5t-49.5 33.5t-33 49.5t-12 60.5z" />
    <glyph glyph-name="ampersand" unicode="&#x26;" horiz-adv-x="556" 
d="M190 585q0 -42 11.5 -74.5t23.5 -63.5q37 41 59 79t22 86q0 27 -16 46.5t-36 19.5q-29 0 -46.5 -20t-17.5 -73zM122 180q0 -56 30.5 -90t90.5 -34q30 0 57 18t44 42q-43 51 -80.5 108t-65.5 111q-14 -14 -27.5 -32.5t-24.5 -38.5t-17.5 -41.5t-6.5 -42.5zM482 346
q-2 -32 -5.5 -58.5t-9 -51.5t-14 -50.5t-21.5 -53.5q18 -21 40 -40.5t48 -37.5l-42 -54q-20 9 -45 28t-45 40q-28 -34 -68 -56t-85 -22q-85 0 -135 49.5t-50 134.5q0 40 12.5 72t30.5 59t38.5 48.5t37.5 40.5q-7 15 -16 37.5t-16.5 48t-13 51.5t-5.5 48q0 39 10 67.5
t27 47.5t40 28.5t49 9.5q30 0 54.5 -10t42.5 -27.5t27.5 -40.5t9.5 -48q0 -38 -10.5 -68t-28.5 -56t-41 -49t-47 -46q27 -55 59 -104.5t70 -94.5q15 39 21.5 79.5t10.5 82.5z" />
    <glyph glyph-name="quotesingle" unicode="'" horiz-adv-x="222" 
d="M80 722h62v-256h-62v256z" />
    <glyph glyph-name="parenleft" unicode="(" horiz-adv-x="278" 
d="M190 -110q-32 50 -55.5 99.5t-38.5 100.5t-22.5 105.5t-7.5 115.5t7.5 115.5t22.5 105.5t38.5 100.5t55.5 99.5l48 -30q-54 -98 -80 -193t-26 -198t26 -198t80 -193z" />
    <glyph glyph-name="parenright" unicode=")" horiz-adv-x="278" 
d="M88 732q32 -50 55.5 -99.5t38.5 -100.5t22.5 -105.5t7.5 -115.5t-7.5 -115.5t-22.5 -105.5t-38.5 -100.5t-55.5 -99.5l-48 30q54 98 80 193t26 198t-26 198t-80 193z" />
    <glyph glyph-name="asterisk" unicode="*" 
d="M235 564l144 70l20 -66l-154 -32l114 -112l-58 -44l-79 138l-79 -138l-58 44l114 112l-154 32l20 66l144 -70l-20 158h66z" />
    <glyph glyph-name="plus" unicode="+" horiz-adv-x="600" 
d="M267 520h66v-227h227v-66h-227v-227h-66v227h-227v66h227v227z" />
    <glyph glyph-name="comma" unicode="," horiz-adv-x="222" 
d="M153 94v-100l-60 -144h-30l46 150h-40v94h84z" />
    <glyph glyph-name="hyphen" unicode="-" horiz-adv-x="333" 
d="M43 227v66h246v-66h-246z" />
    <glyph glyph-name="period" unicode="." horiz-adv-x="222" 
d="M153 94v-94h-84v94h84z" />
    <glyph glyph-name="slash" unicode="/" horiz-adv-x="278" 
d="M-10 -10l232 742h66l-232 -742h-66z" />
    <glyph glyph-name="zero" unicode="0" 
d="M324 361q0 89 -6.5 148.5t-19.5 95.5t-32 51.5t-44 15.5t-44 -15.5t-32 -51.5t-19.5 -95.5t-6.5 -148.5t6.5 -148.5t19.5 -95.5t32 -51.5t44 -15.5t44 15.5t32 51.5t19.5 95.5t6.5 148.5zM396 361q0 -98 -10.5 -168t-32 -115t-54.5 -66.5t-77 -21.5t-77 21.5t-54.5 66.5
t-32 115t-10.5 168t10.5 168t32 115t54.5 66.5t77 21.5t77 -21.5t54.5 -66.5t32 -115t10.5 -168z" />
    <glyph glyph-name="one" unicode="1" 
d="M106 0v60h88v580l-90 -8v44q31 8 60 21.5t54 34.5h48v-672h84v-60h-244z" />
    <glyph glyph-name="two" unicode="2" 
d="M48 0v60q16 53 42 99.5t55 88t59 80t54 76t39 75.5t15 79q0 57 -25 85.5t-62 28.5q-43 0 -71.5 -35.5t-33.5 -116.5h-66q3 61 17.5 102t37.5 65.5t52 34.5t62 10q71 0 116 -47t45 -137q0 -45 -12.5 -81t-33.5 -69.5t-48.5 -66.5t-57.5 -72.5t-60.5 -87.5t-57.5 -111h274
v-60h-340z" />
    <glyph glyph-name="three" unicode="3" 
d="M60 578q3 32 13.5 60t28.5 49t44 33t61 12q30 0 59 -10.5t51.5 -32.5t36.5 -55t14 -78q0 -77 -27.5 -119.5t-66.5 -50.5v-2q30 -10 50.5 -28.5t33 -42.5t17.5 -52t5 -57q0 -56 -15 -96t-39.5 -66.5t-56 -39t-65.5 -12.5q-36 0 -65.5 13.5t-51 38t-33.5 58t-12 72.5h66
q5 -59 30.5 -90.5t73.5 -31.5q18 0 35 9.5t30.5 28.5t22 47.5t8.5 65.5q0 45 -9.5 74.5t-29.5 47t-51 24.5t-74 7v60q40 0 69 6t47.5 21t27 42t8.5 69q0 65 -23 92.5t-61 27.5q-23 0 -39 -9t-26.5 -23.5t-15 -32.5t-5.5 -37z" />
    <glyph glyph-name="four" unicode="4" 
d="M92 224h163v432h-2zM327 722v-498h75v-60h-75v-164h-72v164h-231v34l198 524h105z" />
    <glyph glyph-name="five" unicode="5" 
d="M122 168q2 -20 8 -40.5t16.5 -38t27 -28.5t40.5 -11q47 0 77.5 47.5t30.5 141.5q0 51 -8 85t-21.5 54.5t-31.5 29t-38 8.5q-31 0 -56.5 -20.5t-34.5 -49.5l-56 10l24 366h254l-6 -60h-190l-14 -220q19 16 43.5 25t52.5 9q31 0 59 -14.5t49 -44t33.5 -73.5t12.5 -103
q0 -62 -14 -109t-38 -78.5t-56 -47.5t-68 -16q-39 0 -68.5 13.5t-49.5 37t-31 55t-13 66.5z" />
    <glyph glyph-name="six" unicode="6" 
d="M124 248q0 -55 7 -92.5t20 -61t32 -34t43 -10.5q21 0 38.5 8.5t29.5 28t19 51.5t7 79q0 48 -7.5 79.5t-20 49.5t-29 25t-33.5 7q-35 0 -61.5 -19t-44.5 -43v-68zM310 588q-4 27 -12.5 43.5t-19.5 25.5t-23.5 12t-22.5 3q-48 0 -76.5 -69t-29.5 -220q22 23 50.5 39
t60.5 16q30 0 58 -11.5t49.5 -38t34.5 -69t13 -103.5q0 -106 -41.5 -166t-113.5 -60q-47 0 -81.5 15.5t-57.5 53t-34.5 101.5t-11.5 162q0 109 12.5 186.5t36 127t57 73t76.5 23.5q35 0 59.5 -10t41 -28.5t26.5 -44.5t15 -57z" />
    <glyph glyph-name="seven" unicode="7" 
d="M60 722h324v-38l-210 -684h-76l210 662h-248v60z" />
    <glyph glyph-name="eight" unicode="8" 
d="M312 578q0 17 -5.5 34t-16.5 30.5t-28 21.5t-40 8t-40 -8t-28 -21.5t-16.5 -30.5t-5.5 -34q0 -55 24.5 -95t65.5 -65q41 25 65.5 65t24.5 95zM328 179q0 29 -8.5 53t-23 44t-33.5 37t-41 33q-22 -16 -41 -33t-33.5 -37t-23 -44t-8.5 -53q0 -22 6 -45t19 -41.5t33 -30.5
t48 -12t48 12t33 30.5t19 41.5t6 45zM400 182q0 -39 -12 -74t-35 -61t-56 -41.5t-75 -15.5t-75 15.5t-56 41.5t-35 61t-12 74q0 67 32 116t84 86q-48 38 -74 80t-26 106q0 36 12.5 65.5t34.5 51t51.5 33.5t63.5 12t63.5 -12t51.5 -33.5t34.5 -51t12.5 -65.5q0 -64 -26 -106
t-74 -80q52 -37 84 -86t32 -116z" />
    <glyph glyph-name="nine" unicode="9" 
d="M320 474q0 55 -7 92.5t-20 61t-32 34t-43 10.5q-21 0 -38.5 -8.5t-29.5 -28t-19 -51.5t-7 -79q0 -48 7.5 -79.5t20 -49.5t29 -25t33.5 -7q35 0 61.5 19t44.5 43v68zM134 134q4 -27 12.5 -43.5t19.5 -25.5t23 -12t23 -3q48 0 76 69t30 220q-22 -23 -50.5 -39t-60.5 -16
q-30 0 -58 11.5t-49.5 38t-34.5 68.5t-13 104q0 106 41.5 166t113.5 60q47 0 81.5 -15.5t57.5 -53t34.5 -102t11.5 -161.5q0 -109 -12.5 -186.5t-36 -127t-57 -73t-76.5 -23.5q-35 0 -59.5 10t-41 28.5t-26.5 44t-15 57.5z" />
    <glyph glyph-name="colon" unicode=":" horiz-adv-x="222" 
d="M153 366v-94h-84v94h84zM153 94v-94h-84v94h84z" />
    <glyph glyph-name="semicolon" unicode=";" horiz-adv-x="222" 
d="M153 366v-94h-84v94h84zM153 94v-100l-60 -144h-30l46 150h-40v94h84z" />
    <glyph glyph-name="less" unicode="&#x3c;" horiz-adv-x="600" 
d="M560 3l-520 232v50l520 232v-69l-422 -188l422 -188v-69z" />
    <glyph glyph-name="equal" unicode="=" horiz-adv-x="600" 
d="M40 186h520v-66h-520v66zM40 400h520v-66h-520v66z" />
    <glyph glyph-name="greater" unicode="&#x3e;" horiz-adv-x="600" 
d="M40 72l422 188l-422 188v69l520 -232v-50l-520 -232v69z" />
    <glyph glyph-name="question" unicode="?" horiz-adv-x="389" 
d="M195 94v-94h-84v94h84zM131 214v50q0 58 19 98t42 74.5t42 71.5t19 90q0 39 -18.5 56.5t-39.5 17.5q-17 0 -29.5 -8t-21 -20.5t-14 -27.5t-6.5 -30l-60 12q3 28 13 52.5t27 42.5t40.5 28.5t53.5 10.5q25 0 48 -8.5t40.5 -25t28 -41.5t10.5 -59q0 -42 -10 -73.5
t-25.5 -57.5t-33.5 -49t-33.5 -47t-25.5 -52.5t-10 -64.5v-40h-56z" />
    <glyph glyph-name="at" unicode="@" horiz-adv-x="800" 
d="M349 204q33 0 61 21.5t49 54t33 69.5t12 67q0 18 -7 35t-18 30t-25.5 21t-30.5 8q-35 0 -64 -20.5t-50 -51.5t-32.5 -68t-11.5 -69q0 -43 23 -70t61 -27zM557 558h63l-86 -282q-5 -14 -7.5 -28.5t-2.5 -25.5q0 -25 22 -25q27 0 53.5 20t47.5 52t34 72t13 80
q0 59 -23 106.5t-61 80.5t-88 50.5t-105 17.5q-66 0 -121.5 -25t-96.5 -68t-64 -99.5t-23 -120.5q0 -68 24 -126t66 -100.5t98.5 -66.5t121.5 -24q71 0 137.5 31.5t108.5 87.5h63q-24 -41 -57.5 -73.5t-74 -55t-86 -34.5t-93.5 -12q-79 0 -147.5 29t-118.5 79.5t-79 118.5
t-29 146q0 77 29.5 144t79.5 117t117.5 79t143.5 29q69 0 130.5 -23t107.5 -63.5t73 -96.5t27 -123q0 -64 -23 -117t-58 -91t-76 -59t-76 -21q-26 0 -44 16.5t-21 49.5l-2 -1q-22 -24 -54 -44.5t-68 -20.5q-32 0 -58.5 12.5t-45 33.5t-29 49.5t-10.5 60.5q0 51 16.5 101
t47.5 90t74 64.5t96 24.5q35 0 64.5 -18t47.5 -60z" />
    <glyph glyph-name="A" unicode="A" 
d="M141 280h162l-80 388h-2zM276 722l159 -722h-78l-43 214h-184l-43 -214h-78l159 722h108z" />
    <glyph glyph-name="B" unicode="B" horiz-adv-x="500" 
d="M144 412h44q85 0 123.5 29t38.5 103q0 62 -29.5 87t-98.5 25h-78v-244zM144 66h78q71 0 107.5 32t36.5 102q0 72 -33.5 109t-110.5 37h-78v-280zM66 722h192q81 0 125.5 -49t44.5 -129q0 -54 -26 -98.5t-84 -61.5v-2q66 -17 96 -65.5t30 -116.5q0 -101 -56.5 -150.5
t-175.5 -49.5h-146v722z" />
    <glyph glyph-name="C" unicode="C" horiz-adv-x="500" 
d="M362 504q-8 86 -34.5 124t-72.5 38q-34 0 -59 -16t-41 -52t-23.5 -94.5t-7.5 -142.5t7.5 -142.5t23.5 -94.5t41 -52t59 -16q27 0 48.5 10t36.5 32t23 57t9 85h78q-2 -121 -52 -185.5t-143 -64.5q-48 0 -87 19.5t-66 63.5t-41.5 115t-14.5 173t14.5 173t41.5 115t66 63.5
t87 19.5q81 0 128.5 -56t56.5 -172h-78z" />
    <glyph glyph-name="D" unicode="D" horiz-adv-x="500" 
d="M144 66h42q43 0 76.5 11.5t56.5 43.5t35 89.5t12 150.5t-12 150.5t-35 89.5t-56.5 43.5t-76.5 11.5h-42v-590zM66 722h134q57 0 102 -17.5t76.5 -59t48.5 -111t17 -173.5t-17 -173.5t-48.5 -111t-76.5 -59t-102 -17.5h-134v722z" />
    <glyph glyph-name="E" unicode="E" 
d="M396 722v-66h-252v-246h186v-66h-186v-278h264v-66h-342v722h330z" />
    <glyph glyph-name="F" unicode="F" horiz-adv-x="389" 
d="M66 722h310v-66h-232v-246h174v-66h-174v-344h-78v722z" />
    <glyph glyph-name="G" unicode="G" horiz-adv-x="500" 
d="M366 500q-2 35 -9 65.5t-20 53t-33.5 35t-50.5 12.5q-33 0 -57 -15.5t-40 -51.5t-24 -94.5t-8 -143.5t8 -143.5t24 -94.5t40 -51.5t57 -15.5q55 0 84 29t29 85v102h-98v66h176v-338h-50l-10 54q-23 -30 -54.5 -47t-76.5 -17q-48 0 -86 19.5t-65 63.5t-41.5 115t-14.5 173
t14.5 173t41.5 115t65 63.5t86 19.5q50 0 84.5 -20t57 -52.5t34 -74.5t15.5 -85h-78z" />
    <glyph glyph-name="H" unicode="H" horiz-adv-x="500" 
d="M144 722v-312h212v312h78v-722h-78v344h-212v-344h-78v722h78z" />
    <glyph glyph-name="I" unicode="I" horiz-adv-x="222" 
d="M150 722v-722h-78v722h78z" />
    <glyph glyph-name="J" unicode="J" horiz-adv-x="278" 
d="M212 722v-542q0 -56 -10 -92.5t-31 -58t-55 -30.5t-82 -9q-8 0 -18.5 2t-21.5 4l6 68q22 -8 45 -8q48 0 68.5 23t20.5 83v560h78z" />
    <glyph glyph-name="K" unicode="K" 
d="M134 722v-368h2l202 368h84l-140 -252l166 -470h-84l-134 390h-2l-94 -168v-222h-78v722h78z" />
    <glyph glyph-name="L" unicode="L" horiz-adv-x="389" 
d="M144 722v-656h234v-66h-312v722h78z" />
    <glyph glyph-name="M" unicode="M" horiz-adv-x="611" 
d="M180 722l126 -546h2l123 546h124v-722h-72v662h-2l-150 -662h-51l-150 662h-2v-662h-72v722h124z" />
    <glyph glyph-name="N" unicode="N" horiz-adv-x="500" 
d="M178 722l186 -532h2v532h78v-722h-84l-224 628h-2v-628h-78v722h122z" />
    <glyph glyph-name="O" unicode="O" horiz-adv-x="500" 
d="M376 361q0 92 -10 151t-27 93.5t-40 47.5t-49 13t-49 -13t-40 -47.5t-27 -93.5t-10 -151t10 -151t27 -93.5t40 -47.5t49 -13t49 13t40 47.5t27 93.5t10 151zM454 361q0 -101 -14.5 -171.5t-41.5 -115t-64.5 -64.5t-83.5 -20t-83.5 20t-64.5 64.5t-41.5 115t-14.5 171.5
t14.5 171.5t41.5 115t64.5 64.5t83.5 20t83.5 -20t64.5 -64.5t41.5 -115t14.5 -171.5z" />
    <glyph glyph-name="P" unicode="P" 
d="M134 392h82q59 0 91.5 32t32.5 100t-32.5 100t-91.5 32h-82v-264zM56 722h170q43 0 78.5 -14t61 -40t39 -62.5t13.5 -81.5t-13.5 -81.5t-39 -62.5t-61 -40t-78.5 -14h-92v-326h-78v722z" />
    <glyph glyph-name="Q" unicode="Q" horiz-adv-x="500" 
d="M266 204q26 -8 46.5 -23.5t37.5 -35.5q13 35 19.5 87.5t6.5 128.5q0 92 -10 151t-27 93.5t-40 47.5t-49 13t-49 -13t-40 -47.5t-27 -93.5t-10 -151t10 -151t27 -93.5t40 -47.5t49 -13q20 0 37.5 7t32.5 25q-23 32 -54 52v64zM474 -56q-43 2 -70.5 25t-47.5 57
q-23 -19 -49.5 -27.5t-56.5 -8.5q-46 0 -83.5 20t-64.5 64.5t-41.5 115t-14.5 171.5t14.5 171.5t41.5 115t64.5 64.5t83.5 20t83.5 -20t64.5 -64.5t41.5 -115t14.5 -171.5t-14.5 -171t-41.5 -115q14 -22 32 -41.5t44 -21.5v-68z" />
    <glyph glyph-name="R" unicode="R" horiz-adv-x="500" 
d="M144 406h68q84 0 116 32t32 93t-32 93t-116 32h-68v-250zM66 722h174q43 0 79.5 -12.5t63 -36.5t41 -58.5t14.5 -79.5q0 -61 -28 -108.5t-88 -68.5l122 -358h-82l-116 342l-102 -4v-338h-78v722z" />
    <glyph glyph-name="S" unicode="S" 
d="M324 536q-2 28 -9 51.5t-20.5 41t-33.5 27.5t-48 10q-45 0 -72 -26.5t-27 -68.5q0 -41 21.5 -70t53.5 -54t70 -49t70 -54.5t53.5 -71t21.5 -98.5q0 -87 -47.5 -135.5t-137.5 -48.5q-42 0 -76 15t-57.5 42t-36 64.5t-13.5 82.5h72q2 -64 31.5 -101t87.5 -37q49 0 78 30.5
t29 88.5q0 41 -21.5 71.5t-53.5 56.5t-70 50.5t-70 54.5t-53.5 67t-21.5 89q0 38 12.5 69t35.5 53t55 34t71 12q78 0 125.5 -50.5t52.5 -145.5h-72z" />
    <glyph glyph-name="T" unicode="T" horiz-adv-x="389" 
d="M381 722v-66h-148v-656h-78v656h-148v66h374z" />
    <glyph glyph-name="U" unicode="U" horiz-adv-x="500" 
d="M144 722v-530q0 -27 4.5 -52t16.5 -43.5t32.5 -29.5t52.5 -11t52.5 11t32.5 29.5t16.5 43.5t4.5 52v530h78v-532q0 -44 -10.5 -80.5t-33 -63t-57 -41.5t-83.5 -15t-83.5 15t-57 41.5t-33 63t-10.5 80.5v532h78z" />
    <glyph glyph-name="V" unicode="V" 
d="M94 722l127 -572h2l127 572h78l-170 -722h-72l-170 722h78z" />
    <glyph glyph-name="W" unicode="W" horiz-adv-x="611" 
d="M78 722l86 -564h2l108 564h64l112 -564h2l80 564h72l-116 -722h-66l-114 567h-2l-114 -567h-66l-120 722h72z" />
    <glyph glyph-name="X" unicode="X" 
d="M104 722l110 -256l102 256h84l-142 -338l172 -384h-84l-132 302l-116 -302h-84l156 384l-150 338h84z" />
    <glyph glyph-name="Y" unicode="Y" 
d="M100 722l124 -316l120 316h84l-166 -416v-306h-78v306l-168 416h84z" />
    <glyph glyph-name="Z" unicode="Z" 
d="M400 722v-54l-268 -602h268v-66h-356v56l260 600h-236v66h332z" />
    <glyph glyph-name="bracketleft" unicode="[" horiz-adv-x="278" 
d="M60 722h184v-40h-118v-742h118v-40h-184v822z" />
    <glyph glyph-name="backslash" unicode="\" horiz-adv-x="278" 
d="M222 -10l-232 742h66l232 -742h-66z" />
    <glyph glyph-name="bracketright" unicode="]" horiz-adv-x="278" 
d="M218 -100h-184v40h118v742h-118v40h184v-822z" />
    <glyph glyph-name="asciicircum" unicode="^" horiz-adv-x="600" 
d="M272 722h56l210 -427h-72l-166 342l-166 -342h-72z" />
    <glyph glyph-name="underscore" unicode="_" horiz-adv-x="500" 
d="M0 -125v50h500v-50h-500z" />
    <glyph glyph-name="grave" unicode="`" horiz-adv-x="222" 
d="M-8 716h78l98 -138h-50z" />
    <glyph glyph-name="a" unicode="a" 
d="M293 280q-25 -8 -55 -20.5t-56.5 -31t-44 -43t-17.5 -55.5q0 -37 17.5 -58.5t56.5 -21.5q29 0 54 17t45 37v176zM62 378q5 31 17 58.5t31 48.5t45 33t61 12q72 0 110.5 -39.5t38.5 -108.5v-290q0 -35 3.5 -59t9.5 -33h-75l-9 44q-11 -11 -25 -20.5t-29 -17t-30 -12
t-27 -4.5q-61 0 -98 36t-37 98q0 48 23.5 84.5t60 63t79.5 43t82 25.5v37q0 43 -20 68t-55 25q-21 0 -36.5 -9.5t-26.5 -24t-17.5 -32.5t-9.5 -36z" />
    <glyph glyph-name="b" unicode="b" 
d="M150 100q17 -23 38 -36.5t38 -13.5q22 0 40.5 10.5t31 34.5t19.5 64.5t7 100.5t-6.5 100.5t-18.5 64.5t-30 34.5t-41 10.5q-24 0 -43 -15t-35 -31v-324zM122 0h-56q6 23 9 56t3 84v582h72v-240q18 18 42.5 33t53.5 15q31 0 58 -14t47.5 -46t32.5 -83.5t12 -126.5
t-12 -126.5t-32.5 -83.5t-47.5 -46t-58 -14q-35 0 -61.5 16t-46.5 44z" />
    <glyph glyph-name="c" unicode="c" horiz-adv-x="389" 
d="M276 366q-5 59 -27 81.5t-55 22.5q-23 0 -39.5 -8.5t-27 -32t-15.5 -64.5t-5 -105q0 -65 5 -105.5t15.5 -64t27 -32t39.5 -8.5q17 0 30.5 5t24 18t17.5 35t12 56h70q-5 -38 -16 -70t-30 -55t-46 -36t-62 -13q-82 0 -120.5 64.5t-38.5 205.5t38.5 205.5t120.5 64.5
q71 0 106 -43.5t46 -120.5h-70z" />
    <glyph glyph-name="d" unicode="d" 
d="M294 424q-16 16 -35 31t-43 15q-23 0 -41 -10.5t-30 -34.5t-18.5 -64.5t-6.5 -100.5t7 -100.5t19.5 -64.5t30.5 -34.5t41 -10.5q17 0 38 13.5t38 36.5v324zM307 50h-2q-19 -28 -45.5 -44t-61.5 -16q-31 0 -58 14t-47.5 46t-32.5 83.5t-12 126.5t12 126.5t32.5 83.5
t47.5 46t58 14q29 0 53.5 -15t42.5 -33v240h72v-582q0 -51 3 -84t9 -56h-68z" />
    <glyph glyph-name="e" unicode="e" horiz-adv-x="389" 
d="M281 308q-2 84 -20 123t-67 39q-20 0 -35.5 -8t-27 -26.5t-18 -50t-6.5 -77.5h174zM107 248v-29q0 -48 5.5 -80t17.5 -52t30 -28.5t44 -8.5q21 0 35.5 8.5t25 22.5t17 31.5t9.5 35.5l68 -8q-4 -29 -17 -56t-34 -48t-49.5 -33.5t-64.5 -12.5q-82 0 -120.5 64.5
t-38.5 205.5t38.5 205.5t120.5 64.5q41 0 71 -17.5t49.5 -50t29 -78.5t9.5 -102v-34h-246z" />
    <glyph glyph-name="f" unicode="f" horiz-adv-x="278" 
d="M18 520h80v106q0 53 23.5 79.5t82.5 26.5q14 0 28.5 -2t27.5 -4v-56q-17 8 -39 8q-26 0 -38.5 -15t-12.5 -40v-103h84v-60h-84v-460h-72v460h-80v60z" />
    <glyph glyph-name="g" unicode="g" 
d="M336 -42q0 18 -15 29t-37.5 18.5t-49.5 12.5t-50 10q-32 -14 -51 -31.5t-19 -39.5q0 -32 27.5 -52.5t86.5 -20.5q60 0 84 21t24 53zM140 345q0 -74 22 -102.5t54 -28.5q16 0 29.5 6.5t24 22t16.5 40.5t6 62t-6 62t-16.5 40.5t-24 22t-29.5 6.5q-32 0 -54 -28.5
t-22 -102.5zM408 464q-6 2 -11 2h-10q-14 0 -24.5 -5.5t-20.5 -14.5q8 -24 12 -46t4 -54q0 -49 -10.5 -84t-29.5 -57.5t-44.5 -33.5t-55.5 -11q-12 0 -24 2t-24 2q-9 -2 -22.5 -10.5t-13.5 -23.5q0 -14 10.5 -22t27.5 -13t40 -9t48 -9q28 -6 54 -14.5t45.5 -22.5t31 -35
t11.5 -53q0 -26 -12 -48t-34.5 -38.5t-55.5 -26t-74 -9.5q-89 0 -133.5 30.5t-44.5 81.5q0 35 20.5 62t55.5 42q-23 8 -39.5 26t-16.5 44q0 29 21 46.5t47 22.5q-15 11 -27 28t-19.5 37t-11.5 42t-4 42q0 94 41 145t110 51q26 0 54 -11.5t41 -36.5q12 21 33.5 34.5
t54.5 13.5v-66z" />
    <glyph glyph-name="h" unicode="h" 
d="M72 722h72v-259q23 26 55.5 46.5t58.5 20.5q54 0 84 -32t30 -104v-394h-72v384q0 45 -14 65.5t-43 20.5q-26 0 -50.5 -17t-48.5 -47v-406h-72v722z" />
    <glyph glyph-name="i" unicode="i" horiz-adv-x="222" 
d="M75 722h72v-84h-72v84zM75 520h72v-520h-72v520z" />
    <glyph glyph-name="j" unicode="j" horiz-adv-x="222" 
d="M78 722h72v-84h-72v84zM4 -106q7 -2 13 -3t11 -1q24 0 37 14.5t13 49.5v566h72v-572q0 -65 -26 -91.5t-80 -26.5q-10 0 -19.5 1t-20.5 3v60z" />
    <glyph glyph-name="k" unicode="k" horiz-adv-x="389" 
d="M66 722h72v-456h2l138 254h74l-96 -166l120 -354h-74l-94 282h-2l-68 -128v-154h-72v722z" />
    <glyph glyph-name="l" unicode="l" horiz-adv-x="222" 
d="M75 722h72v-722h-72v722z" />
    <glyph glyph-name="m" unicode="m" horiz-adv-x="667" 
d="M80 0v520h66v-57q21 25 52 46t69 21q31 0 57 -18.5t36 -47.5q22 24 52.5 45t68.5 21q51 0 78 -32t27 -88v-410h-72v400q0 41 -12.5 55.5t-41.5 14.5q-33 0 -54 -18.5t-37 -35.5v-416h-72v400q0 41 -14 55.5t-43 14.5q-17 0 -30 -5t-23.5 -13t-19 -17.5t-15.5 -18.5v-416
h-72z" />
    <glyph glyph-name="n" unicode="n" 
d="M72 520h68v-57q26 26 59 46.5t59 20.5q54 0 84 -32t30 -104v-394h-72v384q0 45 -14 65.5t-43 20.5q-26 0 -50.5 -17t-48.5 -47v-406h-72v520z" />
    <glyph glyph-name="o" unicode="o" horiz-adv-x="389" 
d="M107 260q0 -65 5 -105.5t15.5 -64t27 -32t39.5 -8.5t39.5 8.5t27 32t15.5 64t5 105.5q0 64 -5 105t-15.5 64.5t-27 32t-39.5 8.5t-39.5 -8.5t-27 -32t-15.5 -64.5t-5 -105zM35 260q0 141 38.5 205.5t120.5 64.5t120.5 -64.5t38.5 -205.5t-38.5 -205.5t-120.5 -64.5
t-120.5 64.5t-38.5 205.5z" />
    <glyph glyph-name="p" unicode="p" 
d="M150 96q16 -16 35 -31t43 -15q23 0 41 10.5t30 34.5t18.5 64.5t6.5 100.5t-7 100.5t-19.5 64.5t-31 34.5t-40.5 10.5q-17 0 -38 -13.5t-38 -36.5v-324zM138 470h2q18 28 44.5 44t61.5 16q31 0 58 -14t47.5 -46t32.5 -83.5t12 -126.5t-12 -126.5t-32.5 -83.5t-47.5 -46
t-58 -14q-29 0 -53.5 15t-42.5 33v-208h-72v690h60v-50z" />
    <glyph glyph-name="q" unicode="q" 
d="M294 420q-17 23 -38 36.5t-38 13.5q-23 0 -41 -10.5t-30.5 -34.5t-19.5 -64.5t-7 -100.5t6.5 -100.5t18.5 -64.5t30 -34.5t41 -10.5q24 0 43 15t35 31v324zM306 520h60v-690h-72v208q-18 -18 -42.5 -33t-53.5 -15q-31 0 -58 14t-47.5 46t-32.5 83.5t-12 126.5t12 126.5
t32.5 83.5t47.5 46t58 14q35 0 61.5 -16t44.5 -44h2v50z" />
    <glyph glyph-name="r" unicode="r" horiz-adv-x="278" 
d="M66 520h72v-63h2q16 24 30.5 38t30 22t33 10.5t38.5 2.5v-68q-20 0 -38 -4t-34.5 -14.5t-31.5 -28t-30 -45.5v-370h-72v520z" />
    <glyph glyph-name="s" unicode="s" horiz-adv-x="389" 
d="M274 388q-5 17 -11.5 32t-16.5 26t-25 17.5t-37 6.5q-26 0 -42 -18t-16 -44t16.5 -45.5t40.5 -36.5t53 -34t53 -38.5t40.5 -50.5t16.5 -69q0 -31 -10.5 -57t-29.5 -45.5t-45 -30.5t-57 -11q-71 0 -109 36t-57 102l66 14q6 -17 14 -33.5t19.5 -29.5t26.5 -21t35 -8
q15 0 28.5 6.5t24 17t16.5 25t6 30.5q0 30 -16.5 51.5t-40.5 39t-53 34.5t-53 37.5t-40.5 47.5t-16.5 65q0 25 10 48t28 40.5t42.5 27.5t54.5 10q60 0 96 -32.5t49 -91.5z" />
    <glyph glyph-name="t" unicode="t" horiz-adv-x="278" 
d="M8 520h70v174h72v-174h96v-60h-96v-364q0 -23 12.5 -37.5t39.5 -14.5q11 0 23 3.5t21 6.5v-54q-15 -5 -30 -7.5t-38 -2.5q-51 0 -75.5 26t-24.5 86v358h-70v60z" />
    <glyph glyph-name="u" unicode="u" 
d="M372 0h-68v57q-26 -26 -59 -46.5t-59 -20.5q-54 0 -84 32t-30 104v394h72v-384q0 -45 14 -65.5t43 -20.5q26 0 50.5 17t48.5 47v406h72v-520z" />
    <glyph glyph-name="v" unicode="v" horiz-adv-x="389" 
d="M90 520l104 -448h2l102 448h72l-128 -520h-96l-128 520h72z" />
    <glyph glyph-name="w" unicode="w" horiz-adv-x="556" 
d="M86 520l74 -382h2l84 382h68l86 -382h2l68 382h68l-108 -520h-60l-90 404h-2l-90 -404h-60l-110 520h68z" />
    <glyph glyph-name="x" unicode="x" horiz-adv-x="333" 
d="M1 520h74l86 -182l76 182h74l-112 -250l132 -270h-74l-94 204l-88 -204h-74l120 270z" />
    <glyph glyph-name="y" unicode="y" horiz-adv-x="333" 
d="M76 520l98 -398h2l80 398h74l-119 -509q-20 -86 -59 -133.5t-105 -47.5h-37v60h22q43 0 70 29.5t38 84.5l-138 516h74z" />
    <glyph glyph-name="z" unicode="z" horiz-adv-x="333" 
d="M39 520h270v-48l-206 -412h206v-60h-286v54l200 406h-184v60z" />
    <glyph glyph-name="braceleft" unicode="{" horiz-adv-x="278" 
d="M16 331q31 0 44.5 18t13.5 66v221q0 48 26 72t68 24h64v-40h-52q-40 0 -40 -52v-235q0 -23 -7 -40t-17.5 -28t-24.5 -17t-27 -8v-2q13 -2 27 -8t24.5 -17t17.5 -28t7 -40v-235q0 -52 40 -52h52v-40h-64q-42 0 -68 24t-26 72v221q0 48 -13.5 66t-44.5 18v40z" />
    <glyph glyph-name="bar" unicode="|" horiz-adv-x="222" 
d="M78 732h66v-742h-66v742z" />
    <glyph glyph-name="braceright" unicode="}" horiz-adv-x="278" 
d="M262 291q-31 0 -44.5 -18t-13.5 -66v-221q0 -48 -26 -72t-68 -24h-64v40h52q40 0 40 52v235q0 23 7 40t17.5 28t24 17t27.5 8v2q-14 2 -27.5 8t-24 17t-17.5 28t-7 40v235q0 52 -40 52h-52v40h64q42 0 68 -24t26 -72v-221q0 -48 13.5 -66t44.5 -18v-40z" />
    <glyph glyph-name="asciitilde" unicode="~" horiz-adv-x="600" 
d="M540 281q-9 -16 -21 -32t-28 -28.5t-36 -20t-46 -7.5t-55.5 9.5t-59.5 23.5q-29 12 -56.5 23.5t-48.5 11.5q-31 0 -52 -22.5t-39 -49.5l-38 50q9 16 21 32t28 28.5t36 20t46 7.5t55.5 -9.5t59.5 -23.5q29 -12 56.5 -23.5t48.5 -11.5q31 0 52 22.5t39 49.5z" />
    <glyph glyph-name="Euro" unicode="&#x20ac;" 
d="M420 577q-29 38 -59.5 63.5t-76.5 25.5q-37 0 -60.5 -17.5t-38 -47t-21 -67.5t-8.5 -79h233l-15 -60h-220v-92h196l-15 -60h-178q3 -39 10.5 -73t22.5 -59.5t39.5 -40t61.5 -14.5t71.5 17.5t57.5 41.5v-77q-26 -24 -61 -36t-71 -12q-54 0 -91.5 19t-62 53t-37.5 80.5
t-18 100.5h-64l15 60h45q-1 14 -1 28v30v34h-59l15 60h47q4 55 15.5 105.5t35.5 88.5t62.5 60.5t95.5 22.5q46 0 85 -19.5t69 -56.5z" />
    <glyph glyph-name="quotesinglbase" unicode="&#x201a;" horiz-adv-x="222" 
d="M150 94v-100l-60 -144h-30l46 150h-40v94h84z" />
    <glyph glyph-name="florin" unicode="&#x192;" 
d="M34 -100q20 -10 42 -10q13 0 24.5 3.5t21.5 18.5t19 46t17.5 86t17 138.5t18.5 203.5h-88v60h92q3 84 16 139t35 88t51.5 46t65.5 13q12 0 24 -1t24 -3v-64q-11 2 -22 5t-22 3q-22 0 -38 -6.5t-28 -29.5t-20 -68t-14 -122h86v-60h-90q-10 -124 -20 -213.5t-22 -151
t-26.5 -99.5t-33 -58.5t-42 -27t-52.5 -6.5q-8 0 -17.5 1t-18.5 3v66z" />
    <glyph glyph-name="quotedblbase" unicode="&#x201e;" horiz-adv-x="389" 
d="M317 94v-100l-60 -144h-30l46 150h-40v94h84zM150 94v-100l-60 -144h-30l46 150h-40v94h84z" />
    <glyph glyph-name="ellipsis" unicode="&#x2026;" horiz-adv-x="1000" 
d="M542 94v-94h-84v94h84zM875 94v-94h-84v94h84zM209 94v-94h-84v94h84z" />
    <glyph glyph-name="dagger" unicode="&#x2020;" horiz-adv-x="500" 
d="M74 552l160 -24q-2 60 -10.5 115.5t-13.5 88.5h80q-5 -33 -13.5 -88.5t-10.5 -115.5l160 24v-78l-160 24q2 -45 10 -92t14 -82q-6 -30 -10 -76.5t-7 -102t-5.5 -115t-5.5 -114.5h-24q-3 55 -5.5 114.5t-5.5 115t-7 102t-10 76.5q6 35 14 82t10 92l-160 -24v78z" />
    <glyph glyph-name="daggerdbl" unicode="&#x2021;" horiz-adv-x="500" 
d="M426 474l-160 24q2 -45 10 -92t14 -82q-6 -35 -14 -82t-10 -92l160 24v-78l-160 24q2 -60 10.5 -115.5t13.5 -88.5h-80q5 33 13.5 88.5t10.5 115.5l-160 -24v78l160 -24q-2 45 -10 92t-14 82q6 35 14 82t10 92l-160 -24v78l160 -24q-2 60 -10.5 115.5t-13.5 88.5h80
q-5 -33 -13.5 -88.5t-10.5 -115.5l160 24v-78z" />
    <glyph glyph-name="circumflex" unicode="&#x2c6;" horiz-adv-x="222" 
d="M77 716h68l101 -138h-64l-71 102l-71 -102h-64z" />
    <glyph glyph-name="perthousand" unicode="&#x2030;" horiz-adv-x="1000" 
d="M76 574q0 -18 7 -34.5t19 -29.5t29 -20.5t37 -7.5t37 7.5t29 20.5t19 29.5t7 34.5t-7 34.5t-19 29.5t-29 20.5t-37 7.5t-37 -7.5t-29 -20.5t-19 -29.5t-7 -34.5zM740 148q0 -18 7 -34.5t19 -29.5t29 -20.5t37 -7.5t37 7.5t29 20.5t19 29.5t7 34.5t-7 34.5t-19 29.5
t-29 20.5t-37 7.5t-37 -7.5t-29 -20.5t-19 -29.5t-7 -34.5zM384 148q0 -18 7 -34.5t19 -29.5t29 -20.5t37 -7.5t37 7.5t29 20.5t19 29.5t7 34.5t-7 34.5t-19 29.5t-29 20.5t-37 7.5t-37 -7.5t-29 -20.5t-19 -29.5t-7 -34.5zM558 732l-414 -742h-58l414 742h58zM328 148
q0 30 12 56.5t32.5 47t47 32.5t56.5 12t56.5 -12t47 -32.5t32.5 -47t12 -56.5t-12 -56.5t-32.5 -47t-47 -32.5t-56.5 -12t-56.5 12t-47 32.5t-32.5 47t-12 56.5zM684 148q0 30 12 56.5t32.5 47t47 32.5t56.5 12t56.5 -12t47 -32.5t32.5 -47t12 -56.5t-12 -56.5t-32.5 -47
t-47 -32.5t-56.5 -12t-56.5 12t-47 32.5t-32.5 47t-12 56.5zM20 574q0 30 12 56.5t32.5 47t47 32.5t56.5 12t56.5 -12t47 -32.5t32.5 -47t12 -56.5t-12 -56.5t-32.5 -47t-47 -32.5t-56.5 -12t-56.5 12t-47 32.5t-32.5 47t-12 56.5z" />
    <glyph glyph-name="Scaron" unicode="&#x160;" 
d="M324 536q-2 28 -9 51.5t-20.5 41t-33.5 27.5t-48 10q-45 0 -72 -26.5t-27 -68.5q0 -41 21.5 -70t53.5 -54t70 -49t70 -54.5t53.5 -71t21.5 -98.5q0 -87 -47.5 -135.5t-137.5 -48.5q-42 0 -76 15t-57.5 42t-36 64.5t-13.5 82.5h72q2 -64 31.5 -101t87.5 -37q49 0 78 30.5
t29 88.5q0 41 -21.5 71.5t-53.5 56.5t-70 50.5t-70 54.5t-53.5 67t-21.5 89q0 38 12.5 69t35.5 53t55 34t71 12q78 0 125.5 -50.5t52.5 -145.5h-72zM87 898h64l71 -102l71 102h64l-101 -138h-68z" />
    <glyph glyph-name="guilsinglleft" unicode="&#x2039;" horiz-adv-x="333" 
d="M196 106l-124 154l124 154h68l-128 -154l128 -154h-68z" />
    <glyph glyph-name="OE" unicode="&#x152;" horiz-adv-x="722" 
d="M362 554q0 60 -21.5 80t-70.5 20q-36 0 -65 -13t-49 -46t-31 -90t-11 -144t11 -144t31 -90t49 -46t65 -13q49 0 70.5 20t21.5 80v386zM440 66h246v-66h-386q-69 0 -119 16.5t-82 57.5t-47.5 110.5t-15.5 176.5t15.5 176.5t47.5 110.5t82 57.5t119 16.5h374v-66h-234v-246
h178v-66h-178v-278z" />
    <glyph glyph-name="Zcaron" unicode="&#x17d;" 
d="M400 722v-54l-268 -602h268v-66h-356v56l260 600h-236v66h332zM87 898h64l71 -102l71 102h64l-101 -138h-68z" />
    <glyph glyph-name="quoteleft" unicode="&#x2018;" horiz-adv-x="222" 
d="M72 488v100l60 144h30l-46 -150h40v-94h-84z" />
    <glyph glyph-name="quoteright" unicode="&#x2019;" horiz-adv-x="222" 
d="M150 722v-100l-60 -144h-30l46 150h-40v94h84z" />
    <glyph glyph-name="quotedblleft" unicode="&#x201c;" horiz-adv-x="389" 
d="M72 488v100l60 144h30l-46 -150h40v-94h-84zM239 488v100l60 144h30l-46 -150h40v-94h-84z" />
    <glyph glyph-name="quotedblright" unicode="&#x201d;" horiz-adv-x="389" 
d="M317 722v-100l-60 -144h-30l46 150h-40v94h84zM150 722v-100l-60 -144h-30l46 150h-40v94h84z" />
    <glyph glyph-name="bullet" unicode="&#x2022;" horiz-adv-x="500" 
d="M69 361q0 37 14 70t38.5 57.5t57 38.5t70.5 14q37 0 70 -14t58 -38.5t39 -57.5t14 -70q0 -38 -14 -70.5t-39 -57.5t-58 -39t-70 -14q-38 0 -70.5 14t-57 39t-38.5 57.5t-14 70.5z" />
    <glyph glyph-name="endash" unicode="&#x2013;" horiz-adv-x="500" 
d="M0 236v48h500v-48h-500z" />
    <glyph glyph-name="emdash" unicode="&#x2014;" horiz-adv-x="1000" 
d="M0 236v48h1000v-48h-1000z" />
    <glyph glyph-name="tilde" unicode="&#x2dc;" horiz-adv-x="222" 
d="M-30 588q0 16 5.5 33.5t15.5 31.5t24 23.5t32 9.5q19 0 36.5 -7t34.5 -15t32 -15t28 -7q22 0 29 15.5t9 34.5h36q-1 -18 -5.5 -36t-13.5 -31.5t-23.5 -22t-35.5 -8.5q-16 0 -32.5 7t-33.5 15t-32.5 15t-29.5 7q-21 0 -29.5 -15.5t-10.5 -34.5h-36z" />
    <glyph glyph-name="trademark" unicode="&#x2122;" horiz-adv-x="990" 
d="M372 668h-134v-369h-66v369h-134v54h334v-54zM506 299h-66v423h105l126 -321l124 321h106v-423h-66v357h-2l-141 -357h-44l-139 357h-3v-357z" />
    <glyph glyph-name="scaron" unicode="&#x161;" horiz-adv-x="389" 
d="M274 388q-5 17 -11.5 32t-16.5 26t-25 17.5t-37 6.5q-26 0 -42 -18t-16 -44t16.5 -45.5t40.5 -36.5t53 -34t53 -38.5t40.5 -50.5t16.5 -69q0 -31 -10.5 -57t-29.5 -45.5t-45 -30.5t-57 -11q-71 0 -109 36t-57 102l66 14q6 -17 14 -33.5t19.5 -29.5t26.5 -21t35 -8
q15 0 28.5 6.5t24 17t16.5 25t6 30.5q0 30 -16.5 51.5t-40.5 39t-53 34.5t-53 37.5t-40.5 47.5t-16.5 65q0 25 10 48t28 40.5t42.5 27.5t54.5 10q60 0 96 -32.5t49 -91.5zM60 716h64l71 -102l71 102h64l-101 -138h-68z" />
    <glyph glyph-name="guilsinglright" unicode="&#x203a;" horiz-adv-x="333" 
d="M69 106l128 154l-128 154h68l124 -154l-124 -154h-68z" />
    <glyph glyph-name="oe" unicode="&#x153;" horiz-adv-x="611" 
d="M505 308q-2 84 -20 123t-67 39q-31 0 -51.5 -37t-23.5 -125h162zM95 260q0 -65 5 -105.5t15.5 -64t27 -32t39.5 -8.5t39.5 8.5t27.5 32t16.5 64t5.5 105.5q0 64 -5.5 105t-16.5 64.5t-27.5 32t-39.5 8.5t-39.5 -8.5t-27 -32t-15.5 -64.5t-5 -105zM343 248v-29
q0 -48 7 -80t18.5 -52t27 -28.5t32.5 -8.5q21 0 35.5 8.5t25 22.5t16 31.5t8.5 35.5l68 -8q-3 -29 -15.5 -56t-32.5 -48t-47 -33.5t-59 -12.5q-35 0 -67.5 17t-54.5 64q-32 -81 -123 -81q-82 0 -120.5 64.5t-38.5 205.5t38.5 205.5t120.5 64.5q48 0 78.5 -21t47.5 -67
q20 45 48.5 66.5t61.5 21.5q41 0 71 -17.5t49.5 -50t29 -78.5t9.5 -102v-34h-234z" />
    <glyph glyph-name="zcaron" unicode="&#x17e;" horiz-adv-x="333" 
d="M39 520h270v-48l-206 -412h206v-60h-286v54l200 406h-184v60zM32 716h64l71 -102l71 102h64l-101 -138h-68z" />
    <glyph glyph-name="Ydieresis" unicode="&#x178;" 
d="M100 722l124 -316l120 316h84l-166 -416v-306h-78v306l-168 416h84zM255 872h66v-102h-66v102zM123 872h66v-102h-66v102z" />
    <glyph glyph-name="uni00A0" unicode="&#xa0;" horiz-adv-x="222" 
 />
    <glyph glyph-name="exclamdown" unicode="&#xa1;" horiz-adv-x="333" 
d="M125 426v94h84v-94h-84zM209 -202h-84l16 508h52z" />
    <glyph glyph-name="cent" unicode="&#xa2;" 
d="M242 477q-9 3 -22 3q-23 0 -39.5 -8.5t-27 -32t-15.5 -64.5t-5 -105q0 -69 5.5 -110t17.5 -63zM196 63q10 -3 24 -3q17 0 30.5 5t24 18t17.5 35t12 56h70q-5 -38 -16 -70t-30 -55t-46 -36t-62 -13q-23 0 -37 5l-27 -119h-48l31 136q-40 27 -59 87.5t-19 160.5
q0 141 38.5 205.5t120.5 64.5q18 0 35 -3l25 113h48l-29 -130q31 -20 48.5 -56.5t24.5 -87.5h-70q-4 46 -20 70z" />
    <glyph glyph-name="sterling" unicode="&#xa3;" 
d="M32 58q25 12 41.5 31.5t26.5 43t14 50t4 51.5q0 29 -3 50t-5 46h-78v60h66q-8 38 -18 78.5t-10 82.5q0 48 12 82t32 56t46 32.5t55 10.5q48 0 80 -17.5t51 -46.5t27.5 -66.5t10.5 -77.5h-66q-4 31 -10.5 58.5t-17.5 47t-27.5 31t-40.5 11.5q-38 0 -59 -23.5t-21 -86.5
q0 -45 10 -87.5t18 -84.5h106v-60h-94q2 -20 5 -41t3 -43q0 -33 -5 -65.5t-19 -64.5q21 -24 45 -41t53 -17q15 0 28.5 5.5t23.5 20.5t16 40.5t6 65.5h66q0 -58 -8 -96.5t-25 -61.5t-43.5 -32.5t-62.5 -9.5q-18 0 -36 6t-34.5 16.5t-31 24.5t-24.5 29q-20 -27 -46.5 -49
t-60.5 -27v68z" />
    <glyph glyph-name="currency" unicode="&#xa4;" 
d="M78 361q0 -33 10.5 -61t29.5 -48t45.5 -31.5t58.5 -11.5t58.5 11.5t45.5 31.5t29.5 48t10.5 61t-10.5 61t-29.5 48t-45.5 31.5t-58.5 11.5t-58.5 -11.5t-45.5 -31.5t-29.5 -48t-10.5 -61zM396 143l-46 47q-26 -24 -60 -34.5t-68 -10.5t-68 10.5t-60 34.5l-46 -47l-42 42
l46 49q-21 21 -32.5 56.5t-11.5 70.5t11.5 70.5t32.5 56.5l-46 49l42 42l46 -47q26 24 60 34.5t68 10.5t68 -10.5t60 -34.5l46 47l42 -42l-46 -49q21 -21 32.5 -56.5t11.5 -70.5t-11.5 -70.5t-32.5 -56.5l46 -49z" />
    <glyph glyph-name="yen" unicode="&#xa5;" 
d="M353 722h72l-108 -272h102v-60h-126l-34 -84v-8h160v-60h-160v-238h-72v238h-160v60h160v8l-34 84h-126v60h102l-110 272h72l133 -332z" />
    <glyph glyph-name="brokenbar" unicode="&#xa6;" horiz-adv-x="222" 
d="M78 732h66v-284h-66v284zM78 274h66v-284h-66v284z" />
    <glyph glyph-name="section" unicode="&#xa7;" horiz-adv-x="500" 
d="M130 396q0 -17 21 -48.5t50.5 -63t61.5 -55t54 -23.5q23 0 38 18.5t15 40.5q0 21 -21 53.5t-50 63.5t-60 53.5t-51 22.5q-29 0 -43.5 -17t-14.5 -45zM344 614q-8 11 -18.5 22.5t-22.5 20.5t-26 15t-27 6q-35 0 -49.5 -15.5t-14.5 -43.5q0 -22 18.5 -47t46.5 -52.5t60 -57
t60 -60.5t46.5 -63.5t18.5 -65.5q0 -51 -31.5 -80t-80.5 -29q23 -26 41.5 -57.5t18.5 -69.5q0 -26 -10 -48.5t-27 -38.5t-39.5 -25t-48.5 -9q-53 0 -91.5 21.5t-69.5 62.5l48 38q17 -29 46.5 -48.5t64.5 -19.5q26 0 43.5 19.5t17.5 44.5q0 26 -19 53t-47 56t-61 59t-61 62.5
t-47 66.5t-19 70q0 23 10 41.5t26 31t37 19.5t43 7q-28 27 -44 57t-16 69q0 21 8 40t23.5 34t38.5 23.5t52 8.5q45 0 83 -23.5t67 -56.5z" />
    <glyph glyph-name="dieresis" unicode="&#xa8;" horiz-adv-x="222" 
d="M144 690h66v-102h-66v102zM12 690h66v-102h-66v102z" />
    <glyph glyph-name="copyright" unicode="&#xa9;" horiz-adv-x="800" 
d="M598 290q-8 -36 -25 -65.5t-41 -50t-54.5 -32t-64.5 -11.5q-50 0 -91 18t-70 49t-44.5 73t-15.5 91t15 91t43 73t68.5 48t91.5 17q35 0 66.5 -10t56.5 -29.5t41.5 -48t22.5 -65.5h-63q-8 40 -40.5 66.5t-82.5 26.5q-36 0 -63.5 -13t-46 -35.5t-28 -53t-9.5 -65.5t10 -66
t29.5 -55t47 -38t62.5 -14q50 0 82 28t39 71h64zM401 50q64 0 119 23.5t95.5 65.5t63.5 99t23 124q0 66 -23 122.5t-63.5 98t-95.5 65.5t-119 24q-65 0 -120 -24t-96 -65.5t-64 -98t-23 -122.5q0 -67 23 -124t64 -99t96 -65.5t120 -23.5zM401 -10q-77 0 -145 28.5t-119 78
t-81 117.5t-30 148q0 79 30 146.5t81 117t119 78t145 28.5q76 0 144 -28.5t119 -78t80.5 -117t29.5 -146.5q0 -80 -29.5 -148t-80.5 -117.5t-119 -78t-144 -28.5z" />
    <glyph glyph-name="ordfeminine" unicode="&#xaa;" horiz-adv-x="266" 
d="M172 574q-14 -5 -31 -12.5t-32 -18t-25 -23.5t-10 -28q0 -22 9 -31t32 -9q19 0 34 10t23 22v90zM30 641q6 37 30 64t69 27q48 0 72.5 -23.5t24.5 -65.5v-174q0 -20 2 -35t6 -20h-52l-6 18q-11 -12 -31.5 -18t-36.5 -6q-40 0 -64 22t-24 62q0 29 15.5 51t38 37.5t49 26
t49.5 15.5v18q0 24 -9.5 36t-32.5 12q-26 0 -38 -16t-16 -37z" />
    <glyph glyph-name="guillemotleft" unicode="&#xab;" horiz-adv-x="500" 
d="M350 106l-124 154l124 154h68l-128 -154l128 -154h-68zM206 106l-124 154l124 154h68l-128 -154l128 -154h-68z" />
    <glyph glyph-name="logicalnot" unicode="&#xac;" horiz-adv-x="600" 
d="M494 334h-454v66h520v-280h-66v214z" />
    <glyph glyph-name="uni00AD" unicode="&#xad;" horiz-adv-x="333" 
d="M43 227v66h246v-66h-246z" />
    <glyph glyph-name="registered" unicode="&#xae;" horiz-adv-x="800" 
d="M325 388h72q30 0 51 2.5t34.5 10t19.5 20.5t6 35q0 33 -21.5 48.5t-73.5 15.5h-88v-132zM325 142h-66v434h165q150 0 150 -123q0 -29 -9 -50.5t-23.5 -35.5t-33.5 -22t-39 -11l117 -192h-79l-115 190h-67v-190zM401 50q64 0 119 23.5t95.5 65.5t63.5 99t23 124
q0 66 -23 122.5t-63.5 98t-95.5 65.5t-119 24q-65 0 -120 -24t-96 -65.5t-64 -98t-23 -122.5q0 -67 23 -124t64 -99t96 -65.5t120 -23.5zM401 -10q-77 0 -145 28.5t-119 78t-81 117.5t-30 148q0 79 30 146.5t81 117t119 78t145 28.5q76 0 144 -28.5t119 -78t80.5 -117
t29.5 -146.5q0 -80 -29.5 -148t-80.5 -117.5t-119 -78t-144 -28.5z" />
    <glyph glyph-name="macron" unicode="&#xaf;" horiz-adv-x="222" 
d="M-22 614v48h266v-48h-266z" />
    <glyph glyph-name="degree" unicode="&#xb0;" horiz-adv-x="400" 
d="M296 584q0 21 -7.5 39.5t-20 32.5t-30 22t-38.5 8t-38.5 -8t-30 -22t-20 -32.5t-7.5 -39.5t7.5 -39.5t20 -32.5t30 -22t38.5 -8t38.5 8t30 22t20 32.5t7.5 39.5zM52 584q0 30 11.5 57t31.5 47.5t47 32t58 11.5t58 -11.5t47 -32t31.5 -47.5t11.5 -57t-11.5 -57
t-31.5 -47.5t-47 -32t-58 -11.5t-58 11.5t-47 32t-31.5 47.5t-11.5 57z" />
    <glyph glyph-name="plusminus" unicode="&#xb1;" horiz-adv-x="600" 
d="M40 66h520v-66h-520v66zM267 520h66v-170h227v-66h-227v-170h-66v170h-227v66h227v170z" />
    <glyph glyph-name="twosuperior" unicode="&#xb2;" horiz-adv-x="266" 
d="M22 292v50q16 45 43 82t53 71t45 65t19 64q0 26 -11.5 41t-32.5 15q-25 0 -41 -15t-21 -60h-50q2 37 11.5 61.5t24.5 39t34.5 20.5t40.5 6q47 0 76 -27.5t29 -79.5q0 -41 -19 -76t-44.5 -68t-53 -66t-43.5 -71h162v-52h-222z" />
    <glyph glyph-name="threesuperior" unicode="&#xb3;" horiz-adv-x="266" 
d="M30 636q0 42 23 69t72 27q19 0 38 -6.5t33 -19t23 -32.5t9 -47q0 -15 -2.5 -31t-9 -30t-18.5 -25t-30 -15v-2q40 -13 54 -43.5t14 -65.5q0 -68 -31 -98.5t-78 -30.5q-53 0 -81 30.5t-28 79.5h54q2 -24 13 -41t43 -17q23 0 37.5 18.5t14.5 57.5q0 46 -24 63.5t-72 18.5v52
q45 -1 66.5 14t21.5 62q0 26 -10 41t-34 15q-25 0 -34 -11t-10 -33h-54z" />
    <glyph glyph-name="acute" unicode="&#xb4;" horiz-adv-x="222" 
d="M104 578h-50l98 138h78z" />
    <glyph glyph-name="mu" unicode="&#xb5;" 
d="M372 0h-68v57q-26 -26 -59 -46.5t-59 -20.5q-24 0 -42 6v-166h-72v690h72v-384q0 -45 14 -65.5t43 -20.5q26 0 50.5 17t48.5 47v406h72v-520z" />
    <glyph glyph-name="paragraph" unicode="&#xb6;" horiz-adv-x="500" 
d="M215 340q-46 0 -83.5 14t-64.5 39.5t-41.5 59.5t-14.5 75q0 52 18 88.5t47 60t67 34.5t78 11h281v-54h-70v-752h-66v752h-85v-752h-66v424z" />
    <glyph glyph-name="periodcentered" unicode="&#xb7;" horiz-adv-x="222" 
d="M62 260q0 20 14.5 34.5t34.5 14.5t34.5 -14.5t14.5 -34.5t-14.5 -34.5t-34.5 -14.5t-34.5 14.5t-14.5 34.5z" />
    <glyph glyph-name="cedilla" unicode="&#xb8;" horiz-adv-x="222" 
d="M22 -156q12 -5 28.5 -9.5t36.5 -4.5q30 0 48.5 11.5t18.5 29.5q0 17 -14 30t-40 13q-12 0 -22 -3t-20 -7l-14 14l60 82h38l-46 -58l2 -2q10 6 31 6q32 0 55.5 -18t23.5 -54q0 -21 -8.5 -37.5t-23.5 -28t-34.5 -18t-41.5 -6.5q-29 0 -50.5 3.5t-41.5 12.5z" />
    <glyph glyph-name="onesuperior" unicode="&#xb9;" horiz-adv-x="266" 
d="M54 340h46v328l-48 -4v36q36 8 67 32h43v-392h52v-48h-160v48z" />
    <glyph glyph-name="ordmasculine" unicode="&#xba;" horiz-adv-x="233" 
d="M163 570q0 35 -2.5 57.5t-8.5 35.5t-15 18t-22 5t-21.5 -5t-14 -18t-8 -35.5t-2.5 -57.5t2.5 -57.5t8 -35.5t14 -18t21.5 -5t22 5t15 18t8.5 35.5t2.5 57.5zM13 570q0 85 24 123.5t78 38.5t79 -38.5t25 -123.5t-25 -123.5t-79 -38.5t-78 38.5t-24 123.5z" />
    <glyph glyph-name="guillemotright" unicode="&#xbb;" horiz-adv-x="500" 
d="M150 414l124 -154l-124 -154h-68l128 154l-128 154h68zM294 414l124 -154l-124 -154h-68l128 154l-128 154h68z" />
    <glyph glyph-name="onequarter" unicode="&#xbc;" horiz-adv-x="666" 
d="M439 148h83v207h-2zM70 340h46v328l-48 -4v36q36 8 67 32h43v-392h52v-48h-160v48zM91 -10l439 742h62l-439 -742h-62zM578 433v-285h50v-52h-50v-96h-56v96h-139v45l120 292h75z" />
    <glyph glyph-name="onehalf" unicode="&#xbd;" horiz-adv-x="666" 
d="M70 340h46v328l-48 -4v36q36 8 67 32h43v-392h52v-48h-160v48zM418 0v50q16 45 43 82t53 71t45 65t19 64q0 26 -11.5 41t-32.5 15q-25 0 -41 -15t-21 -60h-50q2 37 11.5 61.5t24.5 39t34.5 20.5t40.5 6q47 0 76 -27.5t29 -79.5q0 -41 -19 -76t-44.5 -68t-53 -66
t-43.5 -71h162v-52h-222zM87 -10l439 742h62l-439 -742h-62z" />
    <glyph glyph-name="threequarters" unicode="&#xbe;" horiz-adv-x="666" 
d="M439 148h83v207h-2zM50 636q0 42 23 69t72 27q19 0 38 -6.5t33 -19t23 -32.5t9 -47q0 -15 -2.5 -31t-9 -30t-18.5 -25t-30 -15v-2q40 -13 54 -43.5t14 -65.5q0 -68 -31 -98.5t-78 -30.5q-53 0 -81 30.5t-28 79.5h54q2 -24 13 -41t43 -17q23 0 37.5 18.5t14.5 57.5
q0 46 -24 63.5t-72 18.5v52q45 -1 66.5 14t21.5 62q0 26 -10 41t-34 15q-25 0 -34 -11t-10 -33h-54zM87 -10l439 742h62l-439 -742h-62zM578 433v-285h50v-52h-50v-96h-56v96h-139v45l120 292h75z" />
    <glyph glyph-name="questiondown" unicode="&#xbf;" horiz-adv-x="389" 
d="M194 426v94h84v-94h-84zM258 306v-50q0 -39 -9 -69t-22.5 -55.5t-29.5 -48t-29.5 -46.5t-22.5 -52t-9 -63q0 -39 18.5 -56.5t39.5 -17.5q16 0 29 8t21.5 20.5t13.5 27.5t7 30l60 -12q-3 -28 -13 -52.5t-27 -42.5t-40.5 -28.5t-53.5 -10.5q-25 0 -48 8.5t-40.5 25
t-28 41.5t-10.5 59q0 42 10 73.5t25.5 57.5t33.5 49t33.5 47t25.5 52t10 65v40h56z" />
    <glyph glyph-name="Agrave" unicode="&#xc0;" 
d="M141 280h162l-80 388h-2zM276 722l159 -722h-78l-43 214h-184l-43 -214h-78l159 722h108zM103 898h78l98 -138h-50z" />
    <glyph glyph-name="Aacute" unicode="&#xc1;" 
d="M141 280h162l-80 388h-2zM276 722l159 -722h-78l-43 214h-184l-43 -214h-78l159 722h108zM215 760h-50l98 138h78z" />
    <glyph glyph-name="Acircumflex" unicode="&#xc2;" 
d="M141 280h162l-80 388h-2zM276 722l159 -722h-78l-43 214h-184l-43 -214h-78l159 722h108zM188 898h68l101 -138h-64l-71 102l-71 -102h-64z" />
    <glyph glyph-name="Atilde" unicode="&#xc3;" 
d="M141 280h162l-80 388h-2zM276 722l159 -722h-78l-43 214h-184l-43 -214h-78l159 722h108zM81 770q0 16 5.5 33.5t15.5 31.5t24 23.5t32 9.5q19 0 36.5 -7t34.5 -15t32 -15t28 -7q22 0 29 15.5t9 34.5h36q-1 -18 -5.5 -36t-13.5 -31.5t-23.5 -22t-35.5 -8.5q-16 0 -32.5 7
t-33.5 15t-32.5 15t-29.5 7q-21 0 -29.5 -15.5t-10.5 -34.5h-36z" />
    <glyph glyph-name="Adieresis" unicode="&#xc4;" 
d="M141 280h162l-80 388h-2zM276 722l159 -722h-78l-43 214h-184l-43 -214h-78l159 722h108zM255 872h66v-102h-66v102zM123 872h66v-102h-66v102z" />
    <glyph glyph-name="Aring" unicode="&#xc5;" 
d="M141 280h162l-80 388h-2zM276 722l159 -722h-78l-43 214h-184l-43 -214h-78l159 722h108zM169 855q0 -21 16 -37t37 -16t37 16t16 37t-16 37t-37 16t-37 -16t-16 -37zM127 855q0 19 7 36.5t20 30.5t30.5 20.5t37.5 7.5t37.5 -7.5t30 -20.5t20 -30.5t7.5 -36.5
q0 -20 -7.5 -37t-20 -30t-30 -20.5t-37.5 -7.5t-37.5 7.5t-30.5 20.5t-20 30t-7 37z" />
    <glyph glyph-name="AE" unicode="&#xc6;" horiz-adv-x="722" 
d="M358 280v398h-2l-156 -398h158zM674 722v-66h-238v-246h186v-66h-186v-278h250v-66h-328v214h-184l-82 -214h-83l290 722h375z" />
    <glyph glyph-name="Ccedilla" unicode="&#xc7;" horiz-adv-x="500" 
d="M161 -156q12 -5 28.5 -9.5t36.5 -4.5q30 0 48.5 11.5t18.5 29.5q0 17 -14 30t-40 13q-12 0 -22 -3t-20 -7l-14 14l53 73q-44 3 -79.5 25t-60 66t-37.5 112.5t-13 166.5q0 102 14.5 173t41.5 115t66 63.5t87 19.5q81 0 128.5 -56t56.5 -172h-78q-8 86 -34.5 124t-72.5 38
q-34 0 -59 -16t-41 -52t-23.5 -94.5t-7.5 -142.5t7.5 -142.5t23.5 -94.5t41 -52t59 -16q27 0 48.5 10t36.5 32t23 57t9 85h78q-2 -115 -47 -179t-130 -70l-38 -49l2 -2q10 6 31 6q32 0 55.5 -18t23.5 -54q0 -21 -8.5 -37.5t-23.5 -28t-34.5 -18t-41.5 -6.5q-29 0 -50.5 3.5
t-41.5 12.5z" />
    <glyph glyph-name="Egrave" unicode="&#xc8;" 
d="M396 722v-66h-252v-246h186v-66h-186v-278h264v-66h-342v722h330zM109 898h78l98 -138h-50z" />
    <glyph glyph-name="Eacute" unicode="&#xc9;" 
d="M396 722v-66h-252v-246h186v-66h-186v-278h264v-66h-342v722h330zM221 760h-50l98 138h78z" />
    <glyph glyph-name="Ecircumflex" unicode="&#xca;" 
d="M396 722v-66h-252v-246h186v-66h-186v-278h264v-66h-342v722h330zM194 898h68l101 -138h-64l-71 102l-71 -102h-64z" />
    <glyph glyph-name="Edieresis" unicode="&#xcb;" 
d="M396 722v-66h-252v-246h186v-66h-186v-278h264v-66h-342v722h330zM261 872h66v-102h-66v102zM129 872h66v-102h-66v102z" />
    <glyph glyph-name="Igrave" unicode="&#xcc;" horiz-adv-x="222" 
d="M150 722v-722h-78v722h78zM-8 898h78l98 -138h-50z" />
    <glyph glyph-name="Iacute" unicode="&#xcd;" horiz-adv-x="222" 
d="M150 722v-722h-78v722h78zM104 760h-50l98 138h78z" />
    <glyph glyph-name="Icircumflex" unicode="&#xce;" horiz-adv-x="222" 
d="M150 722v-722h-78v722h78zM77 898h68l101 -138h-64l-71 102l-71 -102h-64z" />
    <glyph glyph-name="Idieresis" unicode="&#xcf;" horiz-adv-x="222" 
d="M150 722v-722h-78v722h78zM144 872h66v-102h-66v102zM12 872h66v-102h-66v102z" />
    <glyph glyph-name="Eth" unicode="&#xd0;" horiz-adv-x="500" 
d="M264 410v-66h-120v-278h42q43 0 76.5 11.5t56.5 43.5t35 89.5t12 150.5t-12 150.5t-35 89.5t-56.5 43.5t-76.5 11.5h-42v-246h120zM66 410v312h134q57 0 102 -17.5t76.5 -59t48.5 -111t17 -173.5t-17 -173.5t-48.5 -111t-76.5 -59t-102 -17.5h-134v344h-54v66h54z" />
    <glyph glyph-name="Ntilde" unicode="&#xd1;" horiz-adv-x="500" 
d="M178 722l186 -532h2v532h78v-722h-84l-224 628h-2v-628h-78v722h122zM109 770q0 16 5.5 33.5t15.5 31.5t24 23.5t32 9.5q19 0 36.5 -7t34.5 -15t32 -15t28 -7q22 0 29 15.5t9 34.5h36q-1 -18 -5.5 -36t-13.5 -31.5t-23.5 -22t-35.5 -8.5q-16 0 -32.5 7t-33.5 15t-32.5 15
t-29.5 7q-21 0 -29.5 -15.5t-10.5 -34.5h-36z" />
    <glyph glyph-name="Ograve" unicode="&#xd2;" horiz-adv-x="500" 
d="M376 361q0 92 -10 151t-27 93.5t-40 47.5t-49 13t-49 -13t-40 -47.5t-27 -93.5t-10 -151t10 -151t27 -93.5t40 -47.5t49 -13t49 13t40 47.5t27 93.5t10 151zM454 361q0 -101 -14.5 -171.5t-41.5 -115t-64.5 -64.5t-83.5 -20t-83.5 20t-64.5 64.5t-41.5 115t-14.5 171.5
t14.5 171.5t41.5 115t64.5 64.5t83.5 20t83.5 -20t64.5 -64.5t41.5 -115t14.5 -171.5zM131 898h78l98 -138h-50z" />
    <glyph glyph-name="Oacute" unicode="&#xd3;" horiz-adv-x="500" 
d="M376 361q0 92 -10 151t-27 93.5t-40 47.5t-49 13t-49 -13t-40 -47.5t-27 -93.5t-10 -151t10 -151t27 -93.5t40 -47.5t49 -13t49 13t40 47.5t27 93.5t10 151zM454 361q0 -101 -14.5 -171.5t-41.5 -115t-64.5 -64.5t-83.5 -20t-83.5 20t-64.5 64.5t-41.5 115t-14.5 171.5
t14.5 171.5t41.5 115t64.5 64.5t83.5 20t83.5 -20t64.5 -64.5t41.5 -115t14.5 -171.5zM243 760h-50l98 138h78z" />
    <glyph glyph-name="Ocircumflex" unicode="&#xd4;" horiz-adv-x="500" 
d="M376 361q0 92 -10 151t-27 93.5t-40 47.5t-49 13t-49 -13t-40 -47.5t-27 -93.5t-10 -151t10 -151t27 -93.5t40 -47.5t49 -13t49 13t40 47.5t27 93.5t10 151zM454 361q0 -101 -14.5 -171.5t-41.5 -115t-64.5 -64.5t-83.5 -20t-83.5 20t-64.5 64.5t-41.5 115t-14.5 171.5
t14.5 171.5t41.5 115t64.5 64.5t83.5 20t83.5 -20t64.5 -64.5t41.5 -115t14.5 -171.5zM216 898h68l101 -138h-64l-71 102l-71 -102h-64z" />
    <glyph glyph-name="Otilde" unicode="&#xd5;" horiz-adv-x="500" 
d="M376 361q0 92 -10 151t-27 93.5t-40 47.5t-49 13t-49 -13t-40 -47.5t-27 -93.5t-10 -151t10 -151t27 -93.5t40 -47.5t49 -13t49 13t40 47.5t27 93.5t10 151zM454 361q0 -101 -14.5 -171.5t-41.5 -115t-64.5 -64.5t-83.5 -20t-83.5 20t-64.5 64.5t-41.5 115t-14.5 171.5
t14.5 171.5t41.5 115t64.5 64.5t83.5 20t83.5 -20t64.5 -64.5t41.5 -115t14.5 -171.5zM109 770q0 16 5.5 33.5t15.5 31.5t24 23.5t32 9.5q19 0 36.5 -7t34.5 -15t32 -15t28 -7q22 0 29 15.5t9 34.5h36q-1 -18 -5.5 -36t-13.5 -31.5t-23.5 -22t-35.5 -8.5q-16 0 -32.5 7
t-33.5 15t-32.5 15t-29.5 7q-21 0 -29.5 -15.5t-10.5 -34.5h-36z" />
    <glyph glyph-name="Odieresis" unicode="&#xd6;" horiz-adv-x="500" 
d="M376 361q0 92 -10 151t-27 93.5t-40 47.5t-49 13t-49 -13t-40 -47.5t-27 -93.5t-10 -151t10 -151t27 -93.5t40 -47.5t49 -13t49 13t40 47.5t27 93.5t10 151zM454 361q0 -101 -14.5 -171.5t-41.5 -115t-64.5 -64.5t-83.5 -20t-83.5 20t-64.5 64.5t-41.5 115t-14.5 171.5
t14.5 171.5t41.5 115t64.5 64.5t83.5 20t83.5 -20t64.5 -64.5t41.5 -115t14.5 -171.5zM283 872h66v-102h-66v102zM151 872h66v-102h-66v102z" />
    <glyph glyph-name="multiply" unicode="&#xd7;" horiz-adv-x="600" 
d="M348 260l212 -212l-48 -48l-212 213l-212 -213l-48 48l212 212l-212 212l48 48l212 -213l212 213l48 -48z" />
    <glyph glyph-name="Oslash" unicode="&#xd8;" horiz-adv-x="500" 
d="M326 627q-17 22 -36 30.5t-40 8.5q-26 0 -49 -13t-40 -47.5t-27 -93.5t-10 -151q0 -65 5 -113t14 -81h2zM171 100q17 -25 36.5 -34.5t42.5 -9.5q26 0 49 13t40 47.5t27 93.5t10 151q0 69 -5.5 118.5t-14.5 84.5h-2zM84 -120h-54l76 190q-29 45 -44.5 116t-15.5 175
q0 101 14.5 171.5t41.5 115t64.5 64.5t83.5 20q61 0 104 -34l42 106h54l-58 -148q29 -45 45.5 -117t16.5 -178q0 -101 -14.5 -171.5t-41.5 -115t-64.5 -64.5t-83.5 -20q-31 0 -58 9t-50 29z" />
    <glyph glyph-name="Ugrave" unicode="&#xd9;" horiz-adv-x="500" 
d="M144 722v-530q0 -27 4.5 -52t16.5 -43.5t32.5 -29.5t52.5 -11t52.5 11t32.5 29.5t16.5 43.5t4.5 52v530h78v-532q0 -44 -10.5 -80.5t-33 -63t-57 -41.5t-83.5 -15t-83.5 15t-57 41.5t-33 63t-10.5 80.5v532h78zM131 898h78l98 -138h-50z" />
    <glyph glyph-name="Uacute" unicode="&#xda;" horiz-adv-x="500" 
d="M144 722v-530q0 -27 4.5 -52t16.5 -43.5t32.5 -29.5t52.5 -11t52.5 11t32.5 29.5t16.5 43.5t4.5 52v530h78v-532q0 -44 -10.5 -80.5t-33 -63t-57 -41.5t-83.5 -15t-83.5 15t-57 41.5t-33 63t-10.5 80.5v532h78zM243 760h-50l98 138h78z" />
    <glyph glyph-name="Ucircumflex" unicode="&#xdb;" horiz-adv-x="500" 
d="M144 722v-530q0 -27 4.5 -52t16.5 -43.5t32.5 -29.5t52.5 -11t52.5 11t32.5 29.5t16.5 43.5t4.5 52v530h78v-532q0 -44 -10.5 -80.5t-33 -63t-57 -41.5t-83.5 -15t-83.5 15t-57 41.5t-33 63t-10.5 80.5v532h78zM216 898h68l101 -138h-64l-71 102l-71 -102h-64z" />
    <glyph glyph-name="Udieresis" unicode="&#xdc;" horiz-adv-x="500" 
d="M144 722v-530q0 -27 4.5 -52t16.5 -43.5t32.5 -29.5t52.5 -11t52.5 11t32.5 29.5t16.5 43.5t4.5 52v530h78v-532q0 -44 -10.5 -80.5t-33 -63t-57 -41.5t-83.5 -15t-83.5 15t-57 41.5t-33 63t-10.5 80.5v532h78zM283 872h66v-102h-66v102zM151 872h66v-102h-66v102z" />
    <glyph glyph-name="Yacute" unicode="&#xdd;" 
d="M100 722l124 -316l120 316h84l-166 -416v-306h-78v306l-168 416h84zM215 760h-50l98 138h78z" />
    <glyph glyph-name="Thorn" unicode="&#xde;" 
d="M134 230h82q59 0 91.5 32t32.5 100t-32.5 100t-91.5 32h-82v-264zM56 722h78v-162h92q43 0 78.5 -14t61 -40t39 -62.5t13.5 -81.5t-13.5 -81.5t-39 -62.5t-61 -40t-78.5 -14h-92v-164h-78v722z" />
    <glyph glyph-name="germandbls" unicode="&#xdf;" 
d="M72 580q0 29 9.5 56.5t28 48.5t46 34t62.5 13q74 0 117 -49.5t43 -132.5q0 -59 -18.5 -92.5t-53.5 -53.5q18 -9 35 -23t30.5 -36.5t22 -56t8.5 -82.5q0 -63 -11 -104.5t-29.5 -66.5t-43.5 -35t-53 -10t-55 12v62q23 -14 49 -14q15 0 27.5 6t22.5 22.5t15.5 44t5.5 71.5
q0 96 -24 135t-84 39v60q40 3 62 29t22 94q0 34 -7 57t-18.5 37.5t-27 20.5t-31.5 6q-35 0 -56.5 -25.5t-21.5 -66.5v-580h-72v580z" />
    <glyph glyph-name="agrave" unicode="&#xe0;" 
d="M293 280q-25 -8 -55 -20.5t-56.5 -31t-44 -43t-17.5 -55.5q0 -37 17.5 -58.5t56.5 -21.5q29 0 54 17t45 37v176zM62 378q5 31 17 58.5t31 48.5t45 33t61 12q72 0 110.5 -39.5t38.5 -108.5v-290q0 -35 3.5 -59t9.5 -33h-75l-9 44q-11 -11 -25 -20.5t-29 -17t-30 -12
t-27 -4.5q-61 0 -98 36t-37 98q0 48 23.5 84.5t60 63t79.5 43t82 25.5v37q0 43 -20 68t-55 25q-21 0 -36.5 -9.5t-26.5 -24t-17.5 -32.5t-9.5 -36zM103 716h78l98 -138h-50z" />
    <glyph glyph-name="aacute" unicode="&#xe1;" 
d="M293 280q-25 -8 -55 -20.5t-56.5 -31t-44 -43t-17.5 -55.5q0 -37 17.5 -58.5t56.5 -21.5q29 0 54 17t45 37v176zM62 378q5 31 17 58.5t31 48.5t45 33t61 12q72 0 110.5 -39.5t38.5 -108.5v-290q0 -35 3.5 -59t9.5 -33h-75l-9 44q-11 -11 -25 -20.5t-29 -17t-30 -12
t-27 -4.5q-61 0 -98 36t-37 98q0 48 23.5 84.5t60 63t79.5 43t82 25.5v37q0 43 -20 68t-55 25q-21 0 -36.5 -9.5t-26.5 -24t-17.5 -32.5t-9.5 -36zM215 578h-50l98 138h78z" />
    <glyph glyph-name="acircumflex" unicode="&#xe2;" 
d="M293 280q-25 -8 -55 -20.5t-56.5 -31t-44 -43t-17.5 -55.5q0 -37 17.5 -58.5t56.5 -21.5q29 0 54 17t45 37v176zM62 378q5 31 17 58.5t31 48.5t45 33t61 12q72 0 110.5 -39.5t38.5 -108.5v-290q0 -35 3.5 -59t9.5 -33h-75l-9 44q-11 -11 -25 -20.5t-29 -17t-30 -12
t-27 -4.5q-61 0 -98 36t-37 98q0 48 23.5 84.5t60 63t79.5 43t82 25.5v37q0 43 -20 68t-55 25q-21 0 -36.5 -9.5t-26.5 -24t-17.5 -32.5t-9.5 -36zM188 716h68l101 -138h-64l-71 102l-71 -102h-64z" />
    <glyph glyph-name="atilde" unicode="&#xe3;" 
d="M293 280q-25 -8 -55 -20.5t-56.5 -31t-44 -43t-17.5 -55.5q0 -37 17.5 -58.5t56.5 -21.5q29 0 54 17t45 37v176zM62 378q5 31 17 58.5t31 48.5t45 33t61 12q72 0 110.5 -39.5t38.5 -108.5v-290q0 -35 3.5 -59t9.5 -33h-75l-9 44q-11 -11 -25 -20.5t-29 -17t-30 -12
t-27 -4.5q-61 0 -98 36t-37 98q0 48 23.5 84.5t60 63t79.5 43t82 25.5v37q0 43 -20 68t-55 25q-21 0 -36.5 -9.5t-26.5 -24t-17.5 -32.5t-9.5 -36zM81 588q0 16 5.5 33.5t15.5 31.5t24 23.5t32 9.5q19 0 36.5 -7t34.5 -15t32 -15t28 -7q22 0 29 15.5t9 34.5h36
q-1 -18 -5.5 -36t-13.5 -31.5t-23.5 -22t-35.5 -8.5q-16 0 -32.5 7t-33.5 15t-32.5 15t-29.5 7q-21 0 -29.5 -15.5t-10.5 -34.5h-36z" />
    <glyph glyph-name="adieresis" unicode="&#xe4;" 
d="M293 280q-25 -8 -55 -20.5t-56.5 -31t-44 -43t-17.5 -55.5q0 -37 17.5 -58.5t56.5 -21.5q29 0 54 17t45 37v176zM62 378q5 31 17 58.5t31 48.5t45 33t61 12q72 0 110.5 -39.5t38.5 -108.5v-290q0 -35 3.5 -59t9.5 -33h-75l-9 44q-11 -11 -25 -20.5t-29 -17t-30 -12
t-27 -4.5q-61 0 -98 36t-37 98q0 48 23.5 84.5t60 63t79.5 43t82 25.5v37q0 43 -20 68t-55 25q-21 0 -36.5 -9.5t-26.5 -24t-17.5 -32.5t-9.5 -36zM255 690h66v-102h-66v102zM123 690h66v-102h-66v102z" />
    <glyph glyph-name="aring" unicode="&#xe5;" 
d="M293 280q-25 -8 -55 -20.5t-56.5 -31t-44 -43t-17.5 -55.5q0 -37 17.5 -58.5t56.5 -21.5q29 0 54 17t45 37v176zM62 378q5 31 17 58.5t31 48.5t45 33t61 12q72 0 110.5 -39.5t38.5 -108.5v-290q0 -35 3.5 -59t9.5 -33h-75l-9 44q-11 -11 -25 -20.5t-29 -17t-30 -12
t-27 -4.5q-61 0 -98 36t-37 98q0 48 23.5 84.5t60 63t79.5 43t82 25.5v37q0 43 -20 68t-55 25q-21 0 -36.5 -9.5t-26.5 -24t-17.5 -32.5t-9.5 -36zM169 673q0 -21 16 -37t37 -16t37 16t16 37t-16 37t-37 16t-37 -16t-16 -37zM127 673q0 19 7 36.5t20 30.5t30.5 20.5
t37.5 7.5t37.5 -7.5t30 -20.5t20 -30.5t7.5 -36.5q0 -20 -7.5 -37t-20 -30t-30 -20.5t-37.5 -7.5t-37.5 7.5t-30.5 20.5t-20 30t-7 37z" />
    <glyph glyph-name="ae" unicode="&#xe6;" horiz-adv-x="611" 
d="M503 308q-2 84 -20 123t-67 39q-36 0 -60.5 -38t-26.5 -124h174zM257 280q-18 -8 -44.5 -20.5t-51 -31t-42 -43t-17.5 -55.5q0 -37 17.5 -58.5t56.5 -21.5q23 0 46 17t35 37v176zM329 248v-29q0 -48 9 -80t23 -52t31 -28.5t34 -8.5q21 0 35.5 8.5t25 22.5t17 31.5
t9.5 35.5l68 -8q-4 -29 -17 -56t-33 -48t-47 -33.5t-59 -12.5q-42 0 -75.5 15t-54.5 56q-42 -45 -75 -58t-55 -13q-61 0 -98 36t-37 98q0 48 23.5 84.5t58 63t74 43t71.5 25.5v37q0 48 -18.5 70.5t-48.5 22.5q-16 0 -29 -9.5t-23.5 -24t-17.5 -32.5t-10 -36l-66 10
q5 31 17 58.5t30.5 48.5t45 33t60.5 12q40 0 66 -18.5t40 -45.5q23 33 52 48.5t61 15.5q41 0 71 -17.5t49.5 -50t29 -78.5t9.5 -102v-34h-246z" />
    <glyph glyph-name="ccedilla" unicode="&#xe7;" horiz-adv-x="389" 
d="M106 -156q12 -5 28.5 -9.5t36.5 -4.5q30 0 48.5 11.5t18.5 29.5q0 17 -14 30t-40 13q-12 0 -22 -3t-20 -7l-14 14l53 73q-75 4 -110.5 68.5t-35.5 200.5q0 141 38.5 205.5t120.5 64.5q71 0 106 -43.5t46 -120.5h-70q-5 59 -27 81.5t-55 22.5q-23 0 -39.5 -8.5t-27 -32
t-15.5 -64.5t-5 -105q0 -65 5 -105.5t15.5 -64t27 -32t39.5 -8.5q17 0 30.5 5t24 18t17.5 35t12 56h70q-8 -70 -39 -116.5t-90 -55.5l-39 -50l2 -2q10 6 31 6q32 0 55.5 -18t23.5 -54q0 -21 -8.5 -37.5t-23.5 -28t-34.5 -18t-41.5 -6.5q-29 0 -50.5 3.5t-41.5 12.5z" />
    <glyph glyph-name="egrave" unicode="&#xe8;" horiz-adv-x="389" 
d="M281 308q-2 84 -20 123t-67 39q-20 0 -35.5 -8t-27 -26.5t-18 -50t-6.5 -77.5h174zM107 248v-29q0 -48 5.5 -80t17.5 -52t30 -28.5t44 -8.5q21 0 35.5 8.5t25 22.5t17 31.5t9.5 35.5l68 -8q-4 -29 -17 -56t-34 -48t-49.5 -33.5t-64.5 -12.5q-82 0 -120.5 64.5
t-38.5 205.5t38.5 205.5t120.5 64.5q41 0 71 -17.5t49.5 -50t29 -78.5t9.5 -102v-34h-246zM76 716h78l98 -138h-50z" />
    <glyph glyph-name="eacute" unicode="&#xe9;" horiz-adv-x="389" 
d="M281 308q-2 84 -20 123t-67 39q-20 0 -35.5 -8t-27 -26.5t-18 -50t-6.5 -77.5h174zM107 248v-29q0 -48 5.5 -80t17.5 -52t30 -28.5t44 -8.5q21 0 35.5 8.5t25 22.5t17 31.5t9.5 35.5l68 -8q-4 -29 -17 -56t-34 -48t-49.5 -33.5t-64.5 -12.5q-82 0 -120.5 64.5
t-38.5 205.5t38.5 205.5t120.5 64.5q41 0 71 -17.5t49.5 -50t29 -78.5t9.5 -102v-34h-246zM188 578h-50l98 138h78z" />
    <glyph glyph-name="ecircumflex" unicode="&#xea;" horiz-adv-x="389" 
d="M281 308q-2 84 -20 123t-67 39q-20 0 -35.5 -8t-27 -26.5t-18 -50t-6.5 -77.5h174zM107 248v-29q0 -48 5.5 -80t17.5 -52t30 -28.5t44 -8.5q21 0 35.5 8.5t25 22.5t17 31.5t9.5 35.5l68 -8q-4 -29 -17 -56t-34 -48t-49.5 -33.5t-64.5 -12.5q-82 0 -120.5 64.5
t-38.5 205.5t38.5 205.5t120.5 64.5q41 0 71 -17.5t49.5 -50t29 -78.5t9.5 -102v-34h-246zM161 716h68l101 -138h-64l-71 102l-71 -102h-64z" />
    <glyph glyph-name="edieresis" unicode="&#xeb;" horiz-adv-x="389" 
d="M281 308q-2 84 -20 123t-67 39q-20 0 -35.5 -8t-27 -26.5t-18 -50t-6.5 -77.5h174zM107 248v-29q0 -48 5.5 -80t17.5 -52t30 -28.5t44 -8.5q21 0 35.5 8.5t25 22.5t17 31.5t9.5 35.5l68 -8q-4 -29 -17 -56t-34 -48t-49.5 -33.5t-64.5 -12.5q-82 0 -120.5 64.5
t-38.5 205.5t38.5 205.5t120.5 64.5q41 0 71 -17.5t49.5 -50t29 -78.5t9.5 -102v-34h-246zM228 690h66v-102h-66v102zM96 690h66v-102h-66v102z" />
    <glyph glyph-name="igrave" unicode="&#xec;" horiz-adv-x="222" 
d="M75 520h72v-520h-72v520zM-8 716h78l98 -138h-50z" />
    <glyph glyph-name="iacute" unicode="&#xed;" horiz-adv-x="222" 
d="M75 520h72v-520h-72v520zM104 578h-50l98 138h78z" />
    <glyph glyph-name="icircumflex" unicode="&#xee;" horiz-adv-x="222" 
d="M75 520h72v-520h-72v520zM77 716h68l101 -138h-64l-71 102l-71 -102h-64z" />
    <glyph glyph-name="idieresis" unicode="&#xef;" horiz-adv-x="222" 
d="M75 520h72v-520h-72v520zM144 690h66v-102h-66v102zM12 690h66v-102h-66v102z" />
    <glyph glyph-name="eth" unicode="&#xf0;" horiz-adv-x="389" 
d="M107 260q0 -65 5 -105.5t15.5 -64t27 -32t39.5 -8.5t39.5 8.5t27 32t15.5 64t5 105.5q0 64 -5 105t-15.5 64.5t-27 32t-39.5 8.5t-39.5 -8.5t-27 -32t-15.5 -64.5t-5 -105zM198 722q13 -12 24.5 -25t22.5 -28l98 37l24 -46l-93 -35q43 -75 61 -168t18 -197
q0 -141 -38.5 -205.5t-120.5 -64.5t-120.5 64.5t-38.5 205.5t38.5 205.5t120.5 64.5q15 0 28 -2t21 -7q-5 21 -13.5 41t-19.5 38l-91 -34l-24 46l85 32q-22 31 -48 56z" />
    <glyph glyph-name="ntilde" unicode="&#xf1;" 
d="M72 520h68v-57q26 26 59 46.5t59 20.5q54 0 84 -32t30 -104v-394h-72v384q0 45 -14 65.5t-43 20.5q-26 0 -50.5 -17t-48.5 -47v-406h-72v520zM81 588q0 16 5.5 33.5t15.5 31.5t24 23.5t32 9.5q19 0 36.5 -7t34.5 -15t32 -15t28 -7q22 0 29 15.5t9 34.5h36
q-1 -18 -5.5 -36t-13.5 -31.5t-23.5 -22t-35.5 -8.5q-16 0 -32.5 7t-33.5 15t-32.5 15t-29.5 7q-21 0 -29.5 -15.5t-10.5 -34.5h-36z" />
    <glyph glyph-name="ograve" unicode="&#xf2;" horiz-adv-x="389" 
d="M107 260q0 -65 5 -105.5t15.5 -64t27 -32t39.5 -8.5t39.5 8.5t27 32t15.5 64t5 105.5q0 64 -5 105t-15.5 64.5t-27 32t-39.5 8.5t-39.5 -8.5t-27 -32t-15.5 -64.5t-5 -105zM35 260q0 141 38.5 205.5t120.5 64.5t120.5 -64.5t38.5 -205.5t-38.5 -205.5t-120.5 -64.5
t-120.5 64.5t-38.5 205.5zM76 716h78l98 -138h-50z" />
    <glyph glyph-name="oacute" unicode="&#xf3;" horiz-adv-x="389" 
d="M107 260q0 -65 5 -105.5t15.5 -64t27 -32t39.5 -8.5t39.5 8.5t27 32t15.5 64t5 105.5q0 64 -5 105t-15.5 64.5t-27 32t-39.5 8.5t-39.5 -8.5t-27 -32t-15.5 -64.5t-5 -105zM35 260q0 141 38.5 205.5t120.5 64.5t120.5 -64.5t38.5 -205.5t-38.5 -205.5t-120.5 -64.5
t-120.5 64.5t-38.5 205.5zM188 578h-50l98 138h78z" />
    <glyph glyph-name="ocircumflex" unicode="&#xf4;" horiz-adv-x="389" 
d="M107 260q0 -65 5 -105.5t15.5 -64t27 -32t39.5 -8.5t39.5 8.5t27 32t15.5 64t5 105.5q0 64 -5 105t-15.5 64.5t-27 32t-39.5 8.5t-39.5 -8.5t-27 -32t-15.5 -64.5t-5 -105zM35 260q0 141 38.5 205.5t120.5 64.5t120.5 -64.5t38.5 -205.5t-38.5 -205.5t-120.5 -64.5
t-120.5 64.5t-38.5 205.5zM161 716h68l101 -138h-64l-71 102l-71 -102h-64z" />
    <glyph glyph-name="otilde" unicode="&#xf5;" horiz-adv-x="389" 
d="M107 260q0 -65 5 -105.5t15.5 -64t27 -32t39.5 -8.5t39.5 8.5t27 32t15.5 64t5 105.5q0 64 -5 105t-15.5 64.5t-27 32t-39.5 8.5t-39.5 -8.5t-27 -32t-15.5 -64.5t-5 -105zM35 260q0 141 38.5 205.5t120.5 64.5t120.5 -64.5t38.5 -205.5t-38.5 -205.5t-120.5 -64.5
t-120.5 64.5t-38.5 205.5zM54 588q0 16 5.5 33.5t15.5 31.5t24 23.5t32 9.5q19 0 36.5 -7t34.5 -15t32 -15t28 -7q22 0 29 15.5t9 34.5h36q-1 -18 -5.5 -36t-13.5 -31.5t-23.5 -22t-35.5 -8.5q-16 0 -32.5 7t-33.5 15t-32.5 15t-29.5 7q-21 0 -29.5 -15.5t-10.5 -34.5h-36z
" />
    <glyph glyph-name="odieresis" unicode="&#xf6;" horiz-adv-x="389" 
d="M107 260q0 -65 5 -105.5t15.5 -64t27 -32t39.5 -8.5t39.5 8.5t27 32t15.5 64t5 105.5q0 64 -5 105t-15.5 64.5t-27 32t-39.5 8.5t-39.5 -8.5t-27 -32t-15.5 -64.5t-5 -105zM35 260q0 141 38.5 205.5t120.5 64.5t120.5 -64.5t38.5 -205.5t-38.5 -205.5t-120.5 -64.5
t-120.5 64.5t-38.5 205.5zM228 690h66v-102h-66v102zM96 690h66v-102h-66v102z" />
    <glyph glyph-name="divide" unicode="&#xf7;" horiz-adv-x="600" 
d="M234 464q0 27 19.5 46.5t46.5 19.5t46.5 -19.5t19.5 -46.5t-19.5 -46.5t-46.5 -19.5t-46.5 19.5t-19.5 46.5zM234 56q0 27 19.5 46.5t46.5 19.5t46.5 -19.5t19.5 -46.5t-19.5 -46.5t-46.5 -19.5t-46.5 19.5t-19.5 46.5zM40 227v66h520v-66h-520z" />
    <glyph glyph-name="oslash" unicode="&#xf8;" horiz-adv-x="389" 
d="M145 67q9 -10 21.5 -13.5t27.5 -3.5q23 0 39.5 8.5t27 32t15.5 64t5 105.5q0 83 -8 129h-2zM246 451q-18 19 -52 19q-23 0 -39.5 -8.5t-27 -32t-15.5 -64.5t-5 -105q0 -90 9 -136h2zM306 476q47 -63 47 -216q0 -141 -38.5 -205.5t-120.5 -64.5q-44 0 -72 18l-51 -128h-50
l63 159q-49 64 -49 221q0 141 38.5 205.5t120.5 64.5q47 0 76 -20l47 120h50z" />
    <glyph glyph-name="ugrave" unicode="&#xf9;" 
d="M372 0h-68v57q-26 -26 -59 -46.5t-59 -20.5q-54 0 -84 32t-30 104v394h72v-384q0 -45 14 -65.5t43 -20.5q26 0 50.5 17t48.5 47v406h72v-520zM103 716h78l98 -138h-50z" />
    <glyph glyph-name="uacute" unicode="&#xfa;" 
d="M372 0h-68v57q-26 -26 -59 -46.5t-59 -20.5q-54 0 -84 32t-30 104v394h72v-384q0 -45 14 -65.5t43 -20.5q26 0 50.5 17t48.5 47v406h72v-520zM215 578h-50l98 138h78z" />
    <glyph glyph-name="ucircumflex" unicode="&#xfb;" 
d="M372 0h-68v57q-26 -26 -59 -46.5t-59 -20.5q-54 0 -84 32t-30 104v394h72v-384q0 -45 14 -65.5t43 -20.5q26 0 50.5 17t48.5 47v406h72v-520zM188 716h68l101 -138h-64l-71 102l-71 -102h-64z" />
    <glyph glyph-name="udieresis" unicode="&#xfc;" 
d="M372 0h-68v57q-26 -26 -59 -46.5t-59 -20.5q-54 0 -84 32t-30 104v394h72v-384q0 -45 14 -65.5t43 -20.5q26 0 50.5 17t48.5 47v406h72v-520zM255 690h66v-102h-66v102zM123 690h66v-102h-66v102z" />
    <glyph glyph-name="yacute" unicode="&#xfd;" horiz-adv-x="333" 
d="M76 520l98 -398h2l80 398h74l-119 -509q-20 -86 -59 -133.5t-105 -47.5h-37v60h22q43 0 70 29.5t38 84.5l-138 516h74zM160 578h-50l98 138h78z" />
    <glyph glyph-name="thorn" unicode="&#xfe;" 
d="M150 96q16 -16 35 -31t43 -15q23 0 41 10.5t30 34.5t18.5 64.5t6.5 100.5t-7 100.5t-19.5 64.5t-31 34.5t-40.5 10.5q-17 0 -38 -13.5t-38 -36.5v-324zM146 482h2q15 19 39 33.5t59 14.5q31 0 58 -14t47.5 -46t32.5 -83.5t12 -126.5t-12 -126.5t-32.5 -83.5t-47.5 -46
t-58 -14q-29 0 -53.5 15t-42.5 33v-208h-72v892h68v-240z" />
    <glyph glyph-name="ydieresis" unicode="&#xff;" horiz-adv-x="333" 
d="M76 520l98 -398h2l80 398h74l-119 -509q-20 -86 -59 -133.5t-105 -47.5h-37v60h22q43 0 70 29.5t38 84.5l-138 516h74zM200 690h66v-102h-66v102zM68 690h66v-102h-66v102z" />
    <glyph glyph-name=".null" horiz-adv-x="0" 
 />
    <glyph glyph-name="Amacron" unicode="&#x100;" 
d="M141 280h162l-80 388h-2zM276 722l159 -722h-78l-43 214h-184l-43 -214h-78l159 722h108zM90 796v48h266v-48h-266z" />
    <glyph glyph-name="amacron" unicode="&#x101;" 
d="M293 280q-25 -8 -55 -20.5t-56.5 -31t-44 -43t-17.5 -55.5q0 -37 17.5 -58.5t56.5 -21.5q29 0 54 17t45 37v176zM62 378q5 31 17 58.5t31 48.5t45 33t61 12q72 0 110.5 -39.5t38.5 -108.5v-290q0 -35 3.5 -59t9.5 -33h-75l-9 44q-11 -11 -25 -20.5t-29 -17t-30 -12
t-27 -4.5q-61 0 -98 36t-37 98q0 48 23.5 84.5t60 63t79.5 43t82 25.5v37q0 43 -20 68t-55 25q-21 0 -36.5 -9.5t-26.5 -24t-17.5 -32.5t-9.5 -36zM85 614v48h266v-48h-266z" />
    <glyph glyph-name="Abreve" unicode="&#x102;" 
d="M141 280h162l-80 388h-2zM276 722l159 -722h-78l-43 214h-184l-43 -214h-78l159 722h108zM132 892q4 -42 29 -61t66 -19q42 0 60.5 21t26.5 59h38q-5 -61 -39.5 -94.5t-95.5 -33.5q-28 0 -50 10t-38 27.5t-25 40.5t-10 50h38z" />
    <glyph glyph-name="abreve" unicode="&#x103;" 
d="M293 280q-25 -8 -55 -20.5t-56.5 -31t-44 -43t-17.5 -55.5q0 -37 17.5 -58.5t56.5 -21.5q29 0 54 17t45 37v176zM62 378q5 31 17 58.5t31 48.5t45 33t61 12q72 0 110.5 -39.5t38.5 -108.5v-290q0 -35 3.5 -59t9.5 -33h-75l-9 44q-11 -11 -25 -20.5t-29 -17t-30 -12
t-27 -4.5q-61 0 -98 36t-37 98q0 48 23.5 84.5t60 63t79.5 43t82 25.5v37q0 43 -20 68t-55 25q-21 0 -36.5 -9.5t-26.5 -24t-17.5 -32.5t-9.5 -36zM127 710q4 -42 29 -61t66 -19q42 0 60.5 21t26.5 59h38q-5 -61 -39.5 -94.5t-95.5 -33.5q-28 0 -50 10t-38 27.5t-25 40.5
t-10 50h38z" />
    <glyph glyph-name="Aogonek" unicode="&#x104;" 
d="M276 722l159 -722h-32q-11 -4 -24 -10q-27 -11 -51.5 -26t-41.5 -34.5t-17 -44.5q0 -29 16 -41t43 -12q28 0 57.5 14.5t48.5 26.5l16 -32q-30 -21 -69.5 -38t-77.5 -17q-34 0 -61 20.5t-27 65.5q0 38 22 63.5t54 42.5q31 15 65 24l-42 212h-184l-43 -214h-78l159 722h108
zM141 280h162l-80 388h-2z" />
    <glyph glyph-name="aogonek" unicode="&#x105;" 
d="M62 378q5 31 17 58.5t31 48.5t45 33t61 12q72 0 110.5 -39.5t38.5 -108.5v-290q0 -35 3.5 -59t9.5 -33h-18q-16 -6 -31 -13q-17 -8 -38 -23t-35 -35.5t-14 -45.5q0 -26 14.5 -38.5t37.5 -12.5q24 0 42.5 8t40.5 23l16 -32q-28 -21 -53.5 -33t-61.5 -12t-63 21t-27 64
q0 36 20.5 63t47.5 44q25 15 49 22h-2l-9 44q-11 -11 -25 -20.5t-29 -17t-30 -12t-27 -4.5q-61 0 -98 36t-37 98q0 48 23.5 84.5t60 63t79.5 43t82 25.5v37q0 43 -20 68t-55 25q-21 0 -36.5 -9.5t-26.5 -24t-17.5 -32.5t-9.5 -36zM293 280q-25 -8 -55 -20.5t-56.5 -31
t-44 -43t-17.5 -55.5q0 -37 17.5 -58.5t56.5 -21.5q29 0 54 17t45 37v176z" />
    <glyph glyph-name="Cacute" unicode="&#x106;" horiz-adv-x="500" 
d="M362 504q-8 86 -34.5 124t-72.5 38q-34 0 -59 -16t-41 -52t-23.5 -94.5t-7.5 -142.5t7.5 -142.5t23.5 -94.5t41 -52t59 -16q27 0 48.5 10t36.5 32t23 57t9 85h78q-2 -121 -52 -185.5t-143 -64.5q-48 0 -87 19.5t-66 63.5t-41.5 115t-14.5 173t14.5 173t41.5 115t66 63.5
t87 19.5q81 0 128.5 -56t56.5 -172h-78zM245 760h-50l98 138h78z" />
    <glyph glyph-name="cacute" unicode="&#x107;" horiz-adv-x="389" 
d="M276 366q-5 59 -27 81.5t-55 22.5q-23 0 -39.5 -8.5t-27 -32t-15.5 -64.5t-5 -105q0 -65 5 -105.5t15.5 -64t27 -32t39.5 -8.5q17 0 30.5 5t24 18t17.5 35t12 56h70q-5 -38 -16 -70t-30 -55t-46 -36t-62 -13q-82 0 -120.5 64.5t-38.5 205.5t38.5 205.5t120.5 64.5
q71 0 106 -43.5t46 -120.5h-70zM191 578h-50l98 138h78z" />
    <glyph glyph-name="Ccircumflex" unicode="&#x108;" horiz-adv-x="500" 
d="M362 504q-8 86 -34.5 124t-72.5 38q-34 0 -59 -16t-41 -52t-23.5 -94.5t-7.5 -142.5t7.5 -142.5t23.5 -94.5t41 -52t59 -16q27 0 48.5 10t36.5 32t23 57t9 85h78q-2 -121 -52 -185.5t-143 -64.5q-48 0 -87 19.5t-66 63.5t-41.5 115t-14.5 173t14.5 173t41.5 115t66 63.5
t87 19.5q81 0 128.5 -56t56.5 -172h-78zM215 898h68l101 -138h-64l-71 102l-71 -102h-64z" />
    <glyph glyph-name="ccircumflex" unicode="&#x109;" horiz-adv-x="389" 
d="M276 366q-5 59 -27 81.5t-55 22.5q-23 0 -39.5 -8.5t-27 -32t-15.5 -64.5t-5 -105q0 -65 5 -105.5t15.5 -64t27 -32t39.5 -8.5q17 0 30.5 5t24 18t17.5 35t12 56h70q-5 -38 -16 -70t-30 -55t-46 -36t-62 -13q-82 0 -120.5 64.5t-38.5 205.5t38.5 205.5t120.5 64.5
q71 0 106 -43.5t46 -120.5h-70zM160 716h68l101 -138h-64l-71 102l-71 -102h-64z" />
    <glyph glyph-name="Cdotaccent" unicode="&#x10a;" horiz-adv-x="500" 
d="M362 504q-8 86 -34.5 124t-72.5 38q-34 0 -59 -16t-41 -52t-23.5 -94.5t-7.5 -142.5t7.5 -142.5t23.5 -94.5t41 -52t59 -16q27 0 48.5 10t36.5 32t23 57t9 85h78q-2 -121 -52 -185.5t-143 -64.5q-48 0 -87 19.5t-66 63.5t-41.5 115t-14.5 173t14.5 173t41.5 115t66 63.5
t87 19.5q81 0 128.5 -56t56.5 -172h-78zM216 872h66v-102h-66v102z" />
    <glyph glyph-name="cdotaccent" unicode="&#x10b;" horiz-adv-x="389" 
d="M276 366q-5 59 -27 81.5t-55 22.5q-23 0 -39.5 -8.5t-27 -32t-15.5 -64.5t-5 -105q0 -65 5 -105.5t15.5 -64t27 -32t39.5 -8.5q17 0 30.5 5t24 18t17.5 35t12 56h70q-5 -38 -16 -70t-30 -55t-46 -36t-62 -13q-82 0 -120.5 64.5t-38.5 205.5t38.5 205.5t120.5 64.5
q71 0 106 -43.5t46 -120.5h-70zM162 690h66v-102h-66v102z" />
    <glyph glyph-name="Ccaron" unicode="&#x10c;" horiz-adv-x="500" 
d="M362 504q-8 86 -34.5 124t-72.5 38q-34 0 -59 -16t-41 -52t-23.5 -94.5t-7.5 -142.5t7.5 -142.5t23.5 -94.5t41 -52t59 -16q27 0 48.5 10t36.5 32t23 57t9 85h78q-2 -121 -52 -185.5t-143 -64.5q-48 0 -87 19.5t-66 63.5t-41.5 115t-14.5 173t14.5 173t41.5 115t66 63.5
t87 19.5q81 0 128.5 -56t56.5 -172h-78zM115 898h64l71 -102l71 102h64l-101 -138h-68z" />
    <glyph glyph-name="ccaron" unicode="&#x10d;" horiz-adv-x="389" 
d="M276 366q-5 59 -27 81.5t-55 22.5q-23 0 -39.5 -8.5t-27 -32t-15.5 -64.5t-5 -105q0 -65 5 -105.5t15.5 -64t27 -32t39.5 -8.5q17 0 30.5 5t24 18t17.5 35t12 56h70q-5 -38 -16 -70t-30 -55t-46 -36t-62 -13q-82 0 -120.5 64.5t-38.5 205.5t38.5 205.5t120.5 64.5
q71 0 106 -43.5t46 -120.5h-70zM59 716h64l71 -102l71 102h64l-101 -138h-68z" />
    <glyph glyph-name="Dcaron" unicode="&#x10e;" horiz-adv-x="500" 
d="M144 66h42q43 0 76.5 11.5t56.5 43.5t35 89.5t12 150.5t-12 150.5t-35 89.5t-56.5 43.5t-76.5 11.5h-42v-590zM66 722h134q57 0 102 -17.5t76.5 -59t48.5 -111t17 -173.5t-17 -173.5t-48.5 -111t-76.5 -59t-102 -17.5h-134v722zM87 898h64l71 -102l71 102h64l-101 -138
h-68z" />
    <glyph glyph-name="dcaron" unicode="&#x10f;" 
d="M294 424q-16 16 -35 31t-43 15q-23 0 -41 -10.5t-30 -34.5t-18.5 -64.5t-6.5 -100.5t7 -100.5t19.5 -64.5t30.5 -34.5t41 -10.5q17 0 38 13.5t38 36.5v324zM307 50h-2q-19 -28 -45.5 -44t-61.5 -16q-31 0 -58 14t-47.5 46t-32.5 83.5t-12 126.5t12 126.5t32.5 83.5
t47.5 46t58 14q29 0 53.5 -15t42.5 -33v240h72v-582q0 -51 3 -84t9 -56h-68zM478 722v-73l-42 -89h-27l34 89h-36v73h71z" />
    <glyph glyph-name="Dcroat" unicode="&#x110;" horiz-adv-x="500" 
d="M264 410v-66h-120v-278h42q43 0 76.5 11.5t56.5 43.5t35 89.5t12 150.5t-12 150.5t-35 89.5t-56.5 43.5t-76.5 11.5h-42v-246h120zM66 410v312h134q57 0 102 -17.5t76.5 -59t48.5 -111t17 -173.5t-17 -173.5t-48.5 -111t-76.5 -59t-102 -17.5h-134v344h-54v66h54z" />
    <glyph glyph-name="dcroat" unicode="&#x111;" 
d="M307 50h-2q-19 -28 -45.5 -44t-61.5 -16q-31 0 -58 14t-47.5 46t-32.5 83.5t-12 126.5q0 72 12 122t32.5 80.5t47.5 44.5t58 14q29 0 53.5 -13.5t42.5 -31.5v114h-123v56h123v76h72v-76h52v-56h-52v-450q0 -51 3 -84t9 -56h-68zM294 418q-16 16 -35 31t-43 15
q-23 0 -41 -10.5t-30 -34.5t-18.5 -63t-6.5 -96q0 -60 7 -100.5t19.5 -64.5t30.5 -34.5t41 -10.5q17 0 38 13.5t38 36.5v318z" />
    <glyph glyph-name="Emacron" unicode="&#x112;" 
d="M396 722v-66h-252v-246h186v-66h-186v-278h264v-66h-342v722h330zM95 796v48h266v-48h-266z" />
    <glyph glyph-name="emacron" unicode="&#x113;" horiz-adv-x="389" 
d="M281 308q-2 84 -20 123t-67 39q-20 0 -35.5 -8t-27 -26.5t-18 -50t-6.5 -77.5h174zM107 248v-29q0 -48 5.5 -80t17.5 -52t30 -28.5t44 -8.5q21 0 35.5 8.5t25 22.5t17 31.5t9.5 35.5l68 -8q-4 -29 -17 -56t-34 -48t-49.5 -33.5t-64.5 -12.5q-82 0 -120.5 64.5
t-38.5 205.5t38.5 205.5t120.5 64.5q41 0 71 -17.5t49.5 -50t29 -78.5t9.5 -102v-34h-246zM62 614v48h266v-48h-266z" />
    <glyph glyph-name="Ebreve" unicode="&#x114;" 
d="M396 722v-66h-252v-246h186v-66h-186v-278h264v-66h-342v722h330zM138 892q4 -42 29 -61t66 -19q42 0 60.5 21t26.5 59h38q-5 -61 -39.5 -94.5t-95.5 -33.5q-28 0 -50 10t-38 27.5t-25 40.5t-10 50h38z" />
    <glyph glyph-name="ebreve" unicode="&#x115;" horiz-adv-x="389" 
d="M281 308q-2 84 -20 123t-67 39q-20 0 -35.5 -8t-27 -26.5t-18 -50t-6.5 -77.5h174zM107 248v-29q0 -48 5.5 -80t17.5 -52t30 -28.5t44 -8.5q21 0 35.5 8.5t25 22.5t17 31.5t9.5 35.5l68 -8q-4 -29 -17 -56t-34 -48t-49.5 -33.5t-64.5 -12.5q-82 0 -120.5 64.5
t-38.5 205.5t38.5 205.5t120.5 64.5q41 0 71 -17.5t49.5 -50t29 -78.5t9.5 -102v-34h-246zM104 710q4 -42 29 -61t66 -19q42 0 60.5 21t26.5 59h38q-5 -61 -39.5 -94.5t-95.5 -33.5q-28 0 -50 10t-38 27.5t-25 40.5t-10 50h38z" />
    <glyph glyph-name="Edotaccent" unicode="&#x116;" 
d="M396 722v-66h-252v-246h186v-66h-186v-278h264v-66h-342v722h330zM195 872h66v-102h-66v102z" />
    <glyph glyph-name="edotaccent" unicode="&#x117;" horiz-adv-x="389" 
d="M281 308q-2 84 -20 123t-67 39q-20 0 -35.5 -8t-27 -26.5t-18 -50t-6.5 -77.5h174zM107 248v-29q0 -48 5.5 -80t17.5 -52t30 -28.5t44 -8.5q21 0 35.5 8.5t25 22.5t17 31.5t9.5 35.5l68 -8q-4 -29 -17 -56t-34 -48t-49.5 -33.5t-64.5 -12.5q-82 0 -120.5 64.5
t-38.5 205.5t38.5 205.5t120.5 64.5q41 0 71 -17.5t49.5 -50t29 -78.5t9.5 -102v-34h-246zM162 690h66v-102h-66v102z" />
    <glyph glyph-name="Eogonek" unicode="&#x118;" 
d="M396 722v-66h-252v-246h186v-66h-186v-278h264v-66h-39q-11 -4 -24 -10q-27 -11 -51.5 -26t-41.5 -34.5t-17 -44.5q0 -29 16 -41t43 -12q28 0 57.5 14.5t48.5 26.5l16 -32q-30 -21 -69.5 -38t-77.5 -17q-34 0 -61 20.5t-27 65.5q0 38 22 63.5t54 42.5q28 14 58 22h-249
v722h330z" />
    <glyph glyph-name="eogonek" unicode="&#x119;" horiz-adv-x="389" 
d="M107 248v-29q0 -48 5.5 -80t17.5 -52t30 -28.5t44 -8.5q21 0 35.5 8.5t25 22.5t17 31.5t9.5 35.5l68 -8q-4 -29 -17 -56t-34 -48q-17 -17 -38 -28q-11 -8 -21 -15q-14 -10 -35 -27t-35 -37.5t-14 -45.5q0 -26 14.5 -38.5t37.5 -12.5q24 0 42.5 8t40.5 23l16 -32
q-28 -21 -53.5 -33t-61.5 -12t-63 21t-27 64q0 36 20.5 63t47.5 46q8 5 15 10q-82 0 -120.5 64.5t-38.5 205.5t38.5 205.5t120.5 64.5q41 0 71 -17.5t49.5 -50t29 -78.5t9.5 -102v-34h-246zM281 308q-2 84 -20 123t-67 39q-20 0 -35.5 -8t-27 -26.5t-18 -50t-6.5 -77.5h174z
" />
    <glyph glyph-name="Ecaron" unicode="&#x11a;" 
d="M396 722v-66h-252v-246h186v-66h-186v-278h264v-66h-342v722h330zM94 898h64l71 -102l71 102h64l-101 -138h-68z" />
    <glyph glyph-name="ecaron" unicode="&#x11b;" horiz-adv-x="389" 
d="M281 308q-2 84 -20 123t-67 39q-20 0 -35.5 -8t-27 -26.5t-18 -50t-6.5 -77.5h174zM107 248v-29q0 -48 5.5 -80t17.5 -52t30 -28.5t44 -8.5q21 0 35.5 8.5t25 22.5t17 31.5t9.5 35.5l68 -8q-4 -29 -17 -56t-34 -48t-49.5 -33.5t-64.5 -12.5q-82 0 -120.5 64.5
t-38.5 205.5t38.5 205.5t120.5 64.5q41 0 71 -17.5t49.5 -50t29 -78.5t9.5 -102v-34h-246zM60 716h64l71 -102l71 102h64l-101 -138h-68z" />
    <glyph glyph-name="Gcircumflex" unicode="&#x11c;" horiz-adv-x="500" 
d="M366 500q-2 35 -9 65.5t-20 53t-33.5 35t-50.5 12.5q-33 0 -57 -15.5t-40 -51.5t-24 -94.5t-8 -143.5t8 -143.5t24 -94.5t40 -51.5t57 -15.5q55 0 84 29t29 85v102h-98v66h176v-338h-50l-10 54q-23 -30 -54.5 -47t-76.5 -17q-48 0 -86 19.5t-65 63.5t-41.5 115t-14.5 173
t14.5 173t41.5 115t65 63.5t86 19.5q50 0 84.5 -20t57 -52.5t34 -74.5t15.5 -85h-78zM215 898h68l101 -138h-64l-71 102l-71 -102h-64z" />
    <glyph glyph-name="gcircumflex" unicode="&#x11d;" 
d="M336 -42q0 18 -15 29t-37.5 18.5t-49.5 12.5t-50 10q-32 -14 -51 -31.5t-19 -39.5q0 -32 27.5 -52.5t86.5 -20.5q60 0 84 21t24 53zM140 345q0 -74 22 -102.5t54 -28.5q16 0 29.5 6.5t24 22t16.5 40.5t6 62t-6 62t-16.5 40.5t-24 22t-29.5 6.5q-32 0 -54 -28.5
t-22 -102.5zM408 464q-6 2 -11 2h-10q-14 0 -24.5 -5.5t-20.5 -14.5q8 -24 12 -46t4 -54q0 -49 -10.5 -84t-29.5 -57.5t-44.5 -33.5t-55.5 -11q-12 0 -24 2t-24 2q-9 -2 -22.5 -10.5t-13.5 -23.5q0 -14 10.5 -22t27.5 -13t40 -9t48 -9q28 -6 54 -14.5t45.5 -22.5t31 -35
t11.5 -53q0 -26 -12 -48t-34.5 -38.5t-55.5 -26t-74 -9.5q-89 0 -133.5 30.5t-44.5 81.5q0 35 20.5 62t55.5 42q-23 8 -39.5 26t-16.5 44q0 29 21 46.5t47 22.5q-15 11 -27 28t-19.5 37t-11.5 42t-4 42q0 94 41 145t110 51q26 0 54 -11.5t41 -36.5q12 21 33.5 34.5
t54.5 13.5v-66zM186 716h68l101 -138h-64l-71 102l-71 -102h-64z" />
    <glyph glyph-name="Gbreve" unicode="&#x11e;" horiz-adv-x="500" 
d="M366 500q-2 35 -9 65.5t-20 53t-33.5 35t-50.5 12.5q-33 0 -57 -15.5t-40 -51.5t-24 -94.5t-8 -143.5t8 -143.5t24 -94.5t40 -51.5t57 -15.5q55 0 84 29t29 85v102h-98v66h176v-338h-50l-10 54q-23 -30 -54.5 -47t-76.5 -17q-48 0 -86 19.5t-65 63.5t-41.5 115t-14.5 173
t14.5 173t41.5 115t65 63.5t86 19.5q50 0 84.5 -20t57 -52.5t34 -74.5t15.5 -85h-78zM158 892q4 -42 29 -61t66 -19q42 0 60.5 21t26.5 59h38q-5 -61 -39.5 -94.5t-95.5 -33.5q-28 0 -50 10t-38 27.5t-25 40.5t-10 50h38z" />
    <glyph glyph-name="gbreve" unicode="&#x11f;" 
d="M336 -42q0 18 -15 29t-37.5 18.5t-49.5 12.5t-50 10q-32 -14 -51 -31.5t-19 -39.5q0 -32 27.5 -52.5t86.5 -20.5q60 0 84 21t24 53zM140 345q0 -74 22 -102.5t54 -28.5q16 0 29.5 6.5t24 22t16.5 40.5t6 62t-6 62t-16.5 40.5t-24 22t-29.5 6.5q-32 0 -54 -28.5
t-22 -102.5zM408 464q-6 2 -11 2h-10q-14 0 -24.5 -5.5t-20.5 -14.5q8 -24 12 -46t4 -54q0 -49 -10.5 -84t-29.5 -57.5t-44.5 -33.5t-55.5 -11q-12 0 -24 2t-24 2q-9 -2 -22.5 -10.5t-13.5 -23.5q0 -14 10.5 -22t27.5 -13t40 -9t48 -9q28 -6 54 -14.5t45.5 -22.5t31 -35
t11.5 -53q0 -26 -12 -48t-34.5 -38.5t-55.5 -26t-74 -9.5q-89 0 -133.5 30.5t-44.5 81.5q0 35 20.5 62t55.5 42q-23 8 -39.5 26t-16.5 44q0 29 21 46.5t47 22.5q-15 11 -27 28t-19.5 37t-11.5 42t-4 42q0 94 41 145t110 51q26 0 54 -11.5t41 -36.5q12 21 33.5 34.5
t54.5 13.5v-66zM130 710q4 -42 29 -61t66 -19q42 0 60.5 21t26.5 59h38q-5 -61 -39.5 -94.5t-95.5 -33.5q-28 0 -50 10t-38 27.5t-25 40.5t-10 50h38z" />
    <glyph glyph-name="Gdotaccent" unicode="&#x120;" horiz-adv-x="500" 
d="M366 500q-2 35 -9 65.5t-20 53t-33.5 35t-50.5 12.5q-33 0 -57 -15.5t-40 -51.5t-24 -94.5t-8 -143.5t8 -143.5t24 -94.5t40 -51.5t57 -15.5q55 0 84 29t29 85v102h-98v66h176v-338h-50l-10 54q-23 -30 -54.5 -47t-76.5 -17q-48 0 -86 19.5t-65 63.5t-41.5 115t-14.5 173
t14.5 173t41.5 115t65 63.5t86 19.5q50 0 84.5 -20t57 -52.5t34 -74.5t15.5 -85h-78zM216 872h66v-102h-66v102z" />
    <glyph glyph-name="gdotaccent" unicode="&#x121;" 
d="M336 -42q0 18 -15 29t-37.5 18.5t-49.5 12.5t-50 10q-32 -14 -51 -31.5t-19 -39.5q0 -32 27.5 -52.5t86.5 -20.5q60 0 84 21t24 53zM140 345q0 -74 22 -102.5t54 -28.5q16 0 29.5 6.5t24 22t16.5 40.5t6 62t-6 62t-16.5 40.5t-24 22t-29.5 6.5q-32 0 -54 -28.5
t-22 -102.5zM408 464q-6 2 -11 2h-10q-14 0 -24.5 -5.5t-20.5 -14.5q8 -24 12 -46t4 -54q0 -49 -10.5 -84t-29.5 -57.5t-44.5 -33.5t-55.5 -11q-12 0 -24 2t-24 2q-9 -2 -22.5 -10.5t-13.5 -23.5q0 -14 10.5 -22t27.5 -13t40 -9t48 -9q28 -6 54 -14.5t45.5 -22.5t31 -35
t11.5 -53q0 -26 -12 -48t-34.5 -38.5t-55.5 -26t-74 -9.5q-89 0 -133.5 30.5t-44.5 81.5q0 35 20.5 62t55.5 42q-23 8 -39.5 26t-16.5 44q0 29 21 46.5t47 22.5q-15 11 -27 28t-19.5 37t-11.5 42t-4 42q0 94 41 145t110 51q26 0 54 -11.5t41 -36.5q12 21 33.5 34.5
t54.5 13.5v-66zM189 690h66v-102h-66v102z" />
    <glyph glyph-name="Gcommaaccent" unicode="&#x122;" horiz-adv-x="500" 
d="M366 500q-2 35 -9 65.5t-20 53t-33.5 35t-50.5 12.5q-33 0 -57 -15.5t-40 -51.5t-24 -94.5t-8 -143.5t8 -143.5t24 -94.5t40 -51.5t57 -15.5q55 0 84 29t29 85v102h-98v66h176v-338h-50l-10 54q-23 -30 -54.5 -47t-76.5 -17q-48 0 -86 19.5t-65 63.5t-41.5 115t-14.5 173
t14.5 173t41.5 115t65 63.5t86 19.5q50 0 84.5 -20t57 -52.5t34 -74.5t15.5 -85h-78zM295 -46v-77l-43 -93h-28l35 93h-37v77h73z" />
    <glyph glyph-name="gcommaaccent" unicode="&#x123;" 
d="M336 -42q0 18 -15 29t-37.5 18.5t-49.5 12.5t-50 10q-32 -14 -51 -31.5t-19 -39.5q0 -32 27.5 -52.5t86.5 -20.5q60 0 84 21t24 53zM140 345q0 -74 22 -102.5t54 -28.5q16 0 29.5 6.5t24 22t16.5 40.5t6 62t-6 62t-16.5 40.5t-24 22t-29.5 6.5q-32 0 -54 -28.5
t-22 -102.5zM408 464q-6 2 -11 2h-10q-14 0 -24.5 -5.5t-20.5 -14.5q8 -24 12 -46t4 -54q0 -49 -10.5 -84t-29.5 -57.5t-44.5 -33.5t-55.5 -11q-12 0 -24 2t-24 2q-9 -2 -22.5 -10.5t-13.5 -23.5q0 -14 10.5 -22t27.5 -13t40 -9t48 -9q28 -6 54 -14.5t45.5 -22.5t31 -35
t11.5 -53q0 -26 -12 -48t-34.5 -38.5t-55.5 -26t-74 -9.5q-89 0 -133.5 30.5t-44.5 81.5q0 35 20.5 62t55.5 42q-23 8 -39.5 26t-16.5 44q0 29 21 46.5t47 22.5q-15 11 -27 28t-19.5 37t-11.5 42t-4 42q0 94 41 145t110 51q26 0 54 -11.5t41 -36.5q12 21 33.5 34.5
t54.5 13.5v-66zM188 578v64l38 74h24l-30 -74h32v-64h-64z" />
    <glyph glyph-name="Hcircumflex" unicode="&#x124;" horiz-adv-x="500" 
d="M144 722v-312h212v312h78v-722h-78v344h-212v-344h-78v722h78zM219 898h68l101 -138h-64l-71 102l-71 -102h-64z" />
    <glyph glyph-name="hcircumflex" unicode="&#x125;" 
d="M72 722h72v-259q23 26 55.5 46.5t58.5 20.5q54 0 84 -32t30 -104v-394h-72v384q0 45 -14 65.5t-43 20.5q-26 0 -50.5 -17t-48.5 -47v-406h-72v722zM184 898h68l101 -138h-64l-71 102l-71 -102h-64z" />
    <glyph glyph-name="Hbar" unicode="&#x126;" horiz-adv-x="500" 
d="M144 722v-163h212v163h78v-722h-78v304h-212v-304h-78v722h78zM144 367h212v136h-212v-136z" />
    <glyph glyph-name="hbar" unicode="&#x127;" 
d="M72 722h72v-76h125v-56h-125v-127q23 26 55.5 46.5t58.5 20.5q54 0 84 -32t30 -104v-394h-72v384q0 45 -14 65.5t-43 20.5q-26 0 -50.5 -17t-48.5 -47v-406h-72v590h-52v56h52v76z" />
    <glyph glyph-name="Itilde" unicode="&#x128;" horiz-adv-x="222" 
d="M150 722v-722h-78v722h78zM-29 770q0 16 5.5 33.5t15.5 31.5t24 23.5t32 9.5q19 0 36.5 -7t34.5 -15t32 -15t28 -7q22 0 29 15.5t9 34.5h36q-1 -18 -5.5 -36t-13.5 -31.5t-23.5 -22t-35.5 -8.5q-16 0 -32.5 7t-33.5 15t-32.5 15t-29.5 7q-21 0 -29.5 -15.5t-10.5 -34.5
h-36z" />
    <glyph glyph-name="itilde" unicode="&#x129;" horiz-adv-x="222" 
d="M75 520h72v-520h-72v520zM-29 588q0 16 5.5 33.5t15.5 31.5t24 23.5t32 9.5q19 0 36.5 -7t34.5 -15t32 -15t28 -7q22 0 29 15.5t9 34.5h36q-1 -18 -5.5 -36t-13.5 -31.5t-23.5 -22t-35.5 -8.5q-16 0 -32.5 7t-33.5 15t-32.5 15t-29.5 7q-21 0 -29.5 -15.5t-10.5 -34.5
h-36z" />
    <glyph glyph-name="Imacron" unicode="&#x12a;" horiz-adv-x="222" 
d="M150 722v-722h-78v722h78zM-22 796v48h266v-48h-266z" />
    <glyph glyph-name="imacron" unicode="&#x12b;" horiz-adv-x="222" 
d="M75 520h72v-520h-72v520zM-21 614v48h266v-48h-266z" />
    <glyph glyph-name="Iogonek" unicode="&#x12e;" horiz-adv-x="222" 
d="M150 722v-722h-13q-13 -8 -21 -14q-9 -6 -26.5 -21t-28.5 -36t-11 -46q0 -26 14 -38.5t38 -12.5q25 0 42.5 8t41.5 24l16 -32q-30 -22 -54.5 -34t-61.5 -12q-36 0 -63 21t-27 64q0 36 17 63.5t43 44.5q22 14 36 21h-20v722h78z" />
    <glyph glyph-name="iogonek" unicode="&#x12f;" horiz-adv-x="222" 
d="M75 520h72v-520h-10q-13 -8 -21 -14q-9 -6 -26.5 -21t-28.5 -36t-11 -46q0 -26 14 -38.5t38 -12.5q25 0 42.5 8t41.5 24l16 -32q-30 -22 -54.5 -34t-61.5 -12q-36 0 -63 21t-27 64q0 36 17 63.5t43 44.5q22 14 36 21h-17v520zM75 722h72v-84h-72v84z" />
    <glyph glyph-name="Idotaccent" unicode="&#x130;" horiz-adv-x="222" 
d="M150 722v-722h-78v722h78zM79 872h66v-102h-66v102z" />
    <glyph glyph-name="dotlessi" unicode="&#x131;" horiz-adv-x="222" 
d="M75 520h72v-520h-72v520z" />
    <glyph glyph-name="Jcircumflex" unicode="&#x134;" horiz-adv-x="278" 
d="M212 722v-542q0 -56 -10 -92.5t-31 -58t-55 -30.5t-82 -9q-8 0 -18.5 2t-21.5 4l6 68q22 -8 45 -8q48 0 68.5 23t20.5 83v560h78zM136 898h68l101 -138h-64l-71 102l-71 -102h-64z" />
    <glyph glyph-name="jcircumflex" unicode="&#x135;" horiz-adv-x="222" 
d="M4 -106q7 -2 13 -3t11 -1q24 0 37 14.5t13 49.5v566h72v-572q0 -65 -26 -91.5t-80 -26.5q-10 0 -19.5 1t-20.5 3v60zM77 716h68l101 -138h-64l-71 102l-71 -102h-64z" />
    <glyph glyph-name="Kcommaaccent" unicode="&#x136;" 
d="M134 722v-368h2l202 368h84l-140 -252l166 -470h-84l-134 390h-2l-94 -168v-222h-78v722h78zM278 -46v-77l-43 -93h-28l35 93h-37v77h73z" />
    <glyph glyph-name="kcommaaccent" unicode="&#x137;" horiz-adv-x="389" 
d="M66 722h72v-456h2l138 254h74l-96 -166l120 -354h-74l-94 282h-2l-68 -128v-154h-72v722zM249 -46v-77l-43 -93h-28l35 93h-37v77h73z" />
    <glyph glyph-name="Lacute" unicode="&#x139;" horiz-adv-x="389" 
d="M144 722v-656h234v-66h-312v722h78zM130 760h-50l98 138h78z" />
    <glyph glyph-name="lacute" unicode="&#x13a;" horiz-adv-x="222" 
d="M75 722h72v-722h-72v722zM107 760h-50l98 138h78z" />
    <glyph glyph-name="Lcommaaccent" unicode="&#x13b;" horiz-adv-x="389" 
d="M144 722v-656h234v-66h-312v722h78zM257 -46v-77l-43 -93h-28l35 93h-37v77h73z" />
    <glyph glyph-name="lcommaaccent" unicode="&#x13c;" horiz-adv-x="222" 
d="M75 722h72v-722h-72v722zM147 -46v-77l-43 -93h-28l35 93h-37v77h73z" />
    <glyph glyph-name="Lcaron" unicode="&#x13d;" horiz-adv-x="389" 
d="M144 722v-656h234v-66h-312v722h78zM269 722v-73l-42 -89h-27l34 89h-36v73h71z" />
    <glyph glyph-name="lcaron" unicode="&#x13e;" horiz-adv-x="222" 
d="M75 722h72v-722h-72v722zM259 722v-73l-42 -89h-27l34 89h-36v73h71z" />
    <glyph glyph-name="Ldot" unicode="&#x13f;" horiz-adv-x="389" 
d="M144 722v-656h234v-66h-312v722h78zM232 412h66v-102h-66v102z" />
    <glyph glyph-name="ldot" unicode="&#x140;" horiz-adv-x="323" 
d="M75 722h72v-722h-72v722zM224 412h66v-102h-66v102z" />
    <glyph glyph-name="Lslash" unicode="&#x141;" horiz-adv-x="389" 
d="M144 66h234v-66h-312v299l-80 -32v62l80 32v361h78v-329l154 62v-62l-154 -62v-265z" />
    <glyph glyph-name="lslash" unicode="&#x142;" horiz-adv-x="222" 
d="M147 0h-72v369l-79 -41v60l79 41v293h72v-256l79 40v-60l-79 -40v-406z" />
    <glyph glyph-name="Nacute" unicode="&#x143;" horiz-adv-x="500" 
d="M178 722l186 -532h2v532h78v-722h-84l-224 628h-2v-628h-78v722h122zM253 760h-50l98 138h78z" />
    <glyph glyph-name="nacute" unicode="&#x144;" 
d="M72 520h68v-57q26 26 59 46.5t59 20.5q54 0 84 -32t30 -104v-394h-72v384q0 45 -14 65.5t-43 20.5q-26 0 -50.5 -17t-48.5 -47v-406h-72v520zM227 578h-50l98 138h78z" />
    <glyph glyph-name="Ncommaaccent" unicode="&#x145;" horiz-adv-x="500" 
d="M178 722l186 -532h2v532h78v-722h-84l-224 628h-2v-628h-78v722h122zM291 -46v-77l-43 -93h-28l35 93h-37v77h73z" />
    <glyph glyph-name="ncommaaccent" unicode="&#x146;" 
d="M72 520h68v-57q26 26 59 46.5t59 20.5q54 0 84 -32t30 -104v-394h-72v384q0 45 -14 65.5t-43 20.5q-26 0 -50.5 -17t-48.5 -47v-406h-72v520zM256 -46v-77l-43 -93h-28l35 93h-37v77h73z" />
    <glyph glyph-name="Ncaron" unicode="&#x147;" horiz-adv-x="500" 
d="M178 722l186 -532h2v532h78v-722h-84l-224 628h-2v-628h-78v722h122zM121 898h64l71 -102l71 102h64l-101 -138h-68z" />
    <glyph glyph-name="ncaron" unicode="&#x148;" 
d="M72 520h68v-57q26 26 59 46.5t59 20.5q54 0 84 -32t30 -104v-394h-72v384q0 45 -14 65.5t-43 20.5q-26 0 -50.5 -17t-48.5 -47v-406h-72v520zM89 716h64l71 -102l71 102h64l-101 -138h-68z" />
    <glyph glyph-name="Omacron" unicode="&#x14c;" horiz-adv-x="500" 
d="M376 361q0 92 -10 151t-27 93.5t-40 47.5t-49 13t-49 -13t-40 -47.5t-27 -93.5t-10 -151t10 -151t27 -93.5t40 -47.5t49 -13t49 13t40 47.5t27 93.5t10 151zM454 361q0 -101 -14.5 -171.5t-41.5 -115t-64.5 -64.5t-83.5 -20t-83.5 20t-64.5 64.5t-41.5 115t-14.5 171.5
t14.5 171.5t41.5 115t64.5 64.5t83.5 20t83.5 -20t64.5 -64.5t41.5 -115t14.5 -171.5zM118 796v48h266v-48h-266z" />
    <glyph glyph-name="omacron" unicode="&#x14d;" horiz-adv-x="389" 
d="M107 260q0 -65 5 -105.5t15.5 -64t27 -32t39.5 -8.5t39.5 8.5t27 32t15.5 64t5 105.5q0 64 -5 105t-15.5 64.5t-27 32t-39.5 8.5t-39.5 -8.5t-27 -32t-15.5 -64.5t-5 -105zM35 260q0 141 38.5 205.5t120.5 64.5t120.5 -64.5t38.5 -205.5t-38.5 -205.5t-120.5 -64.5
t-120.5 64.5t-38.5 205.5zM62 614v48h266v-48h-266z" />
    <glyph glyph-name="Obreve" unicode="&#x14e;" horiz-adv-x="500" 
d="M376 361q0 92 -10 151t-27 93.5t-40 47.5t-49 13t-49 -13t-40 -47.5t-27 -93.5t-10 -151t10 -151t27 -93.5t40 -47.5t49 -13t49 13t40 47.5t27 93.5t10 151zM454 361q0 -101 -14.5 -171.5t-41.5 -115t-64.5 -64.5t-83.5 -20t-83.5 20t-64.5 64.5t-41.5 115t-14.5 171.5
t14.5 171.5t41.5 115t64.5 64.5t83.5 20t83.5 -20t64.5 -64.5t41.5 -115t14.5 -171.5zM158 892q4 -42 29 -61t66 -19q42 0 60.5 21t26.5 59h38q-5 -61 -39.5 -94.5t-95.5 -33.5q-28 0 -50 10t-38 27.5t-25 40.5t-10 50h38z" />
    <glyph glyph-name="obreve" unicode="&#x14f;" horiz-adv-x="389" 
d="M107 260q0 -65 5 -105.5t15.5 -64t27 -32t39.5 -8.5t39.5 8.5t27 32t15.5 64t5 105.5q0 64 -5 105t-15.5 64.5t-27 32t-39.5 8.5t-39.5 -8.5t-27 -32t-15.5 -64.5t-5 -105zM35 260q0 141 38.5 205.5t120.5 64.5t120.5 -64.5t38.5 -205.5t-38.5 -205.5t-120.5 -64.5
t-120.5 64.5t-38.5 205.5zM104 710q4 -42 29 -61t66 -19q42 0 60.5 21t26.5 59h38q-5 -61 -39.5 -94.5t-95.5 -33.5q-28 0 -50 10t-38 27.5t-25 40.5t-10 50h38z" />
    <glyph glyph-name="Ohungarumlaut" unicode="&#x150;" horiz-adv-x="500" 
d="M376 361q0 92 -10 151t-27 93.5t-40 47.5t-49 13t-49 -13t-40 -47.5t-27 -93.5t-10 -151t10 -151t27 -93.5t40 -47.5t49 -13t49 13t40 47.5t27 93.5t10 151zM454 361q0 -101 -14.5 -171.5t-41.5 -115t-64.5 -64.5t-83.5 -20t-83.5 20t-64.5 64.5t-41.5 115t-14.5 171.5
t14.5 171.5t41.5 115t64.5 64.5t83.5 20t83.5 -20t64.5 -64.5t41.5 -115t14.5 -171.5zM314 760h-50l98 138h78zM198 760h-48l90 138h80z" />
    <glyph glyph-name="ohungarumlaut" unicode="&#x151;" horiz-adv-x="389" 
d="M107 260q0 -65 5 -105.5t15.5 -64t27 -32t39.5 -8.5t39.5 8.5t27 32t15.5 64t5 105.5q0 64 -5 105t-15.5 64.5t-27 32t-39.5 8.5t-39.5 -8.5t-27 -32t-15.5 -64.5t-5 -105zM35 260q0 141 38.5 205.5t120.5 64.5t120.5 -64.5t38.5 -205.5t-38.5 -205.5t-120.5 -64.5
t-120.5 64.5t-38.5 205.5zM256 578h-50l98 138h78zM140 578h-48l90 138h80z" />
    <glyph glyph-name="Racute" unicode="&#x154;" horiz-adv-x="500" 
d="M144 406h68q84 0 116 32t32 93t-32 93t-116 32h-68v-250zM66 722h174q43 0 79.5 -12.5t63 -36.5t41 -58.5t14.5 -79.5q0 -61 -28 -108.5t-88 -68.5l122 -358h-82l-116 342l-102 -4v-338h-78v722zM223 760h-50l98 138h78z" />
    <glyph glyph-name="racute" unicode="&#x155;" horiz-adv-x="278" 
d="M66 520h72v-63h2q16 24 30.5 38t30 22t33 10.5t38.5 2.5v-68q-20 0 -38 -4t-34.5 -14.5t-31.5 -28t-30 -45.5v-370h-72v520zM177 578h-50l98 138h78z" />
    <glyph glyph-name="Rcommaaccent" unicode="&#x156;" horiz-adv-x="500" 
d="M144 406h68q84 0 116 32t32 93t-32 93t-116 32h-68v-250zM66 722h174q43 0 79.5 -12.5t63 -36.5t41 -58.5t14.5 -79.5q0 -61 -28 -108.5t-88 -68.5l122 -358h-82l-116 342l-102 -4v-338h-78v722zM282 -46v-77l-43 -93h-28l35 93h-37v77h73z" />
    <glyph glyph-name="rcommaaccent" unicode="&#x157;" horiz-adv-x="278" 
d="M66 520h72v-63h2q16 24 30.5 38t30 22t33 10.5t38.5 2.5v-68q-20 0 -38 -4t-34.5 -14.5t-31.5 -28t-30 -45.5v-370h-72v520zM139 -46v-77l-43 -93h-28l35 93h-37v77h73z" />
    <glyph glyph-name="Rcaron" unicode="&#x158;" horiz-adv-x="500" 
d="M144 406h68q84 0 116 32t32 93t-32 93t-116 32h-68v-250zM66 722h174q43 0 79.5 -12.5t63 -36.5t41 -58.5t14.5 -79.5q0 -61 -28 -108.5t-88 -68.5l122 -358h-82l-116 342l-102 -4v-338h-78v722zM94 898h64l71 -102l71 102h64l-101 -138h-68z" />
    <glyph glyph-name="rcaron" unicode="&#x159;" horiz-adv-x="278" 
d="M66 520h72v-63h2q16 24 30.5 38t30 22t33 10.5t38.5 2.5v-68q-20 0 -38 -4t-34.5 -14.5t-31.5 -28t-30 -45.5v-370h-72v520zM32 716h64l71 -102l71 102h64l-101 -138h-68z" />
    <glyph glyph-name="Sacute" unicode="&#x15a;" 
d="M324 536q-2 28 -9 51.5t-20.5 41t-33.5 27.5t-48 10q-45 0 -72 -26.5t-27 -68.5q0 -41 21.5 -70t53.5 -54t70 -49t70 -54.5t53.5 -71t21.5 -98.5q0 -87 -47.5 -135.5t-137.5 -48.5q-42 0 -76 15t-57.5 42t-36 64.5t-13.5 82.5h72q2 -64 31.5 -101t87.5 -37q49 0 78 30.5
t29 88.5q0 41 -21.5 71.5t-53.5 56.5t-70 50.5t-70 54.5t-53.5 67t-21.5 89q0 38 12.5 69t35.5 53t55 34t71 12q78 0 125.5 -50.5t52.5 -145.5h-72zM217 760h-50l98 138h78z" />
    <glyph glyph-name="sacute" unicode="&#x15b;" horiz-adv-x="389" 
d="M274 388q-5 17 -11.5 32t-16.5 26t-25 17.5t-37 6.5q-26 0 -42 -18t-16 -44t16.5 -45.5t40.5 -36.5t53 -34t53 -38.5t40.5 -50.5t16.5 -69q0 -31 -10.5 -57t-29.5 -45.5t-45 -30.5t-57 -11q-71 0 -109 36t-57 102l66 14q6 -17 14 -33.5t19.5 -29.5t26.5 -21t35 -8
q15 0 28.5 6.5t24 17t16.5 25t6 30.5q0 30 -16.5 51.5t-40.5 39t-53 34.5t-53 37.5t-40.5 47.5t-16.5 65q0 25 10 48t28 40.5t42.5 27.5t54.5 10q60 0 96 -32.5t49 -91.5zM195 578h-50l98 138h78z" />
    <glyph glyph-name="Scircumflex" unicode="&#x15c;" 
d="M324 536q-2 28 -9 51.5t-20.5 41t-33.5 27.5t-48 10q-45 0 -72 -26.5t-27 -68.5q0 -41 21.5 -70t53.5 -54t70 -49t70 -54.5t53.5 -71t21.5 -98.5q0 -87 -47.5 -135.5t-137.5 -48.5q-42 0 -76 15t-57.5 42t-36 64.5t-13.5 82.5h72q2 -64 31.5 -101t87.5 -37q49 0 78 30.5
t29 88.5q0 41 -21.5 71.5t-53.5 56.5t-70 50.5t-70 54.5t-53.5 67t-21.5 89q0 38 12.5 69t35.5 53t55 34t71 12q78 0 125.5 -50.5t52.5 -145.5h-72zM186 898h68l101 -138h-64l-71 102l-71 -102h-64z" />
    <glyph glyph-name="scircumflex" unicode="&#x15d;" horiz-adv-x="389" 
d="M274 388q-5 17 -11.5 32t-16.5 26t-25 17.5t-37 6.5q-26 0 -42 -18t-16 -44t16.5 -45.5t40.5 -36.5t53 -34t53 -38.5t40.5 -50.5t16.5 -69q0 -31 -10.5 -57t-29.5 -45.5t-45 -30.5t-57 -11q-71 0 -109 36t-57 102l66 14q6 -17 14 -33.5t19.5 -29.5t26.5 -21t35 -8
q15 0 28.5 6.5t24 17t16.5 25t6 30.5q0 30 -16.5 51.5t-40.5 39t-53 34.5t-53 37.5t-40.5 47.5t-16.5 65q0 25 10 48t28 40.5t42.5 27.5t54.5 10q60 0 96 -32.5t49 -91.5zM161 716h68l101 -138h-64l-71 102l-71 -102h-64z" />
    <glyph glyph-name="Scedilla" unicode="&#x15e;" 
d="M128 -156q12 -5 28.5 -9.5t36.5 -4.5q30 0 48.5 11.5t18.5 29.5q0 17 -14 30t-40 13q-12 0 -22 -3t-20 -7l-14 14l53 73q-33 2 -60 14q-34 15 -57.5 42t-36 64.5t-13.5 82.5h72q2 -64 31.5 -101t87.5 -37q49 0 78 30.5t29 88.5q0 41 -21.5 71.5t-53.5 56.5t-70 50.5
t-70 54.5t-53.5 67t-21.5 89q0 38 12.5 69t35.5 53t55 34t71 12q78 0 125.5 -50.5t52.5 -145.5h-72q-2 28 -9 51.5t-20.5 41t-33.5 27.5t-48 10q-45 0 -72 -26.5t-27 -68.5q0 -41 21.5 -70t53.5 -54t70 -49t70 -54.5t53.5 -71t21.5 -98.5q0 -87 -48 -136q-41 -42 -116 -47
l-38 -49l2 -2q10 6 31 6q32 0 55.5 -18t23.5 -54q0 -21 -8.5 -37.5t-23.5 -28t-34.5 -18t-41.5 -6.5q-29 0 -50.5 3.5t-41.5 12.5z" />
    <glyph glyph-name="scedilla" unicode="&#x15f;" horiz-adv-x="389" 
d="M103 -156q12 -5 28.5 -9.5t36.5 -4.5q30 0 48.5 11.5t18.5 29.5q0 17 -14 30t-40 13q-12 0 -22 -3t-20 -7l-14 14l53 73q-52 6 -83 35q-38 36 -57 102l66 14q6 -17 14 -33.5t19.5 -29.5t26.5 -21t35 -8q15 0 28.5 6.5t24 17t16.5 25t6 30.5q0 30 -16.5 51.5t-40.5 39
t-53 34.5t-53 37.5t-40.5 47.5t-16.5 65q0 25 10 48t28 40.5t42.5 27.5t54.5 10q60 0 96 -32.5t49 -91.5l-60 -18q-5 17 -11.5 32t-16.5 26t-25 17.5t-37 6.5q-26 0 -42 -18t-16 -44t16.5 -45.5t40.5 -36.5t53 -34t53 -38.5t40.5 -50.5t16.5 -69q0 -31 -10.5 -57
t-29.5 -45.5t-45 -30.5q-21 -9 -46 -10l-38 -49l2 -2q10 6 31 6q32 0 55.5 -18t23.5 -54q0 -21 -8.5 -37.5t-23.5 -28t-34.5 -18t-41.5 -6.5q-29 0 -50.5 3.5t-41.5 12.5z" />
    <glyph glyph-name="Tcommaaccent" unicode="&#x162;" horiz-adv-x="389" 
d="M381 722v-66h-148v-656h-78v656h-148v66h374zM230 -46v-77l-43 -93h-28l35 93h-37v77h73z" />
    <glyph glyph-name="tcommaaccent" unicode="&#x163;" horiz-adv-x="278" 
d="M8 520h70v174h72v-174h96v-60h-96v-364q0 -23 12.5 -37.5t39.5 -14.5q11 0 23 3.5t21 6.5v-54q-15 -5 -30 -7.5t-38 -2.5q-51 0 -75.5 26t-24.5 86v358h-70v60zM189 -46v-77l-43 -93h-28l35 93h-37v77h73z" />
    <glyph glyph-name="Tcaron" unicode="&#x164;" horiz-adv-x="389" 
d="M381 722v-66h-148v-656h-78v656h-148v66h374zM59 898h64l71 -102l71 102h64l-101 -138h-68z" />
    <glyph glyph-name="tcaron" unicode="&#x165;" horiz-adv-x="278" 
d="M8 520h70v174h72v-174h96v-60h-96v-364q0 -23 12.5 -37.5t39.5 -14.5q11 0 23 3.5t21 6.5v-54q-15 -5 -30 -7.5t-38 -2.5q-51 0 -75.5 26t-24.5 86v358h-70v60zM270 722v-73l-42 -89h-27l34 89h-36v73h71z" />
    <glyph glyph-name="Tbar" unicode="&#x166;" horiz-adv-x="389" 
d="M37 509h118v147h-148v66h374v-66h-148v-147h117v-60h-117v-449h-78v449h-118v60z" />
    <glyph glyph-name="tbar" unicode="&#x167;" horiz-adv-x="278" 
d="M14 352h64v108h-70v60h70v174h72v-174h96v-60h-96v-108h82v-59h-82v-197q0 -23 12.5 -37.5t39.5 -14.5q11 0 23 3.5t21 6.5v-54q-15 -5 -30 -7.5t-38 -2.5q-51 0 -75.5 26t-24.5 86v191h-64v59z" />
    <glyph glyph-name="Utilde" unicode="&#x168;" horiz-adv-x="500" 
d="M144 722v-530q0 -27 4.5 -52t16.5 -43.5t32.5 -29.5t52.5 -11t52.5 11t32.5 29.5t16.5 43.5t4.5 52v530h78v-532q0 -44 -10.5 -80.5t-33 -63t-57 -41.5t-83.5 -15t-83.5 15t-57 41.5t-33 63t-10.5 80.5v532h78zM109 770q0 16 5.5 33.5t15.5 31.5t24 23.5t32 9.5
q19 0 36.5 -7t34.5 -15t32 -15t28 -7q22 0 29 15.5t9 34.5h36q-1 -18 -5.5 -36t-13.5 -31.5t-23.5 -22t-35.5 -8.5q-16 0 -32.5 7t-33.5 15t-32.5 15t-29.5 7q-21 0 -29.5 -15.5t-10.5 -34.5h-36z" />
    <glyph glyph-name="utilde" unicode="&#x169;" 
d="M372 0h-68v57q-26 -26 -59 -46.5t-59 -20.5q-54 0 -84 32t-30 104v394h72v-384q0 -45 14 -65.5t43 -20.5q26 0 50.5 17t48.5 47v406h72v-520zM84 588q0 16 5.5 33.5t15.5 31.5t24 23.5t32 9.5q19 0 36.5 -7t34.5 -15t32 -15t28 -7q22 0 29 15.5t9 34.5h36
q-1 -18 -5.5 -36t-13.5 -31.5t-23.5 -22t-35.5 -8.5q-16 0 -32.5 7t-33.5 15t-32.5 15t-29.5 7q-21 0 -29.5 -15.5t-10.5 -34.5h-36z" />
    <glyph glyph-name="Umacron" unicode="&#x16a;" horiz-adv-x="500" 
d="M144 722v-530q0 -27 4.5 -52t16.5 -43.5t32.5 -29.5t52.5 -11t52.5 11t32.5 29.5t16.5 43.5t4.5 52v530h78v-532q0 -44 -10.5 -80.5t-33 -63t-57 -41.5t-83.5 -15t-83.5 15t-57 41.5t-33 63t-10.5 80.5v532h78zM117 796v48h266v-48h-266z" />
    <glyph glyph-name="umacron" unicode="&#x16b;" 
d="M372 0h-68v57q-26 -26 -59 -46.5t-59 -20.5q-54 0 -84 32t-30 104v394h72v-384q0 -45 14 -65.5t43 -20.5q26 0 50.5 17t48.5 47v406h72v-520zM92 614v48h266v-48h-266z" />
    <glyph glyph-name="Ubreve" unicode="&#x16c;" horiz-adv-x="500" 
d="M144 722v-530q0 -27 4.5 -52t16.5 -43.5t32.5 -29.5t52.5 -11t52.5 11t32.5 29.5t16.5 43.5t4.5 52v530h78v-532q0 -44 -10.5 -80.5t-33 -63t-57 -41.5t-83.5 -15t-83.5 15t-57 41.5t-33 63t-10.5 80.5v532h78zM159 892q4 -42 29 -61t66 -19q42 0 60.5 21t26.5 59h38
q-5 -61 -39.5 -94.5t-95.5 -33.5q-28 0 -50 10t-38 27.5t-25 40.5t-10 50h38z" />
    <glyph glyph-name="ubreve" unicode="&#x16d;" 
d="M372 0h-68v57q-26 -26 -59 -46.5t-59 -20.5q-54 0 -84 32t-30 104v394h72v-384q0 -45 14 -65.5t43 -20.5q26 0 50.5 17t48.5 47v406h72v-520zM134 710q4 -42 29 -61t66 -19q42 0 60.5 21t26.5 59h38q-5 -61 -39.5 -94.5t-95.5 -33.5q-28 0 -50 10t-38 27.5t-25 40.5
t-10 50h38z" />
    <glyph glyph-name="Uring" unicode="&#x16e;" horiz-adv-x="500" 
d="M144 722v-530q0 -27 4.5 -52t16.5 -43.5t32.5 -29.5t52.5 -11t52.5 11t32.5 29.5t16.5 43.5t4.5 52v530h78v-532q0 -44 -10.5 -80.5t-33 -63t-57 -41.5t-83.5 -15t-83.5 15t-57 41.5t-33 63t-10.5 80.5v532h78zM197 855q0 -21 16 -37t37 -16t37 16t16 37t-16 37t-37 16
t-37 -16t-16 -37zM155 855q0 19 7 36.5t20 30.5t30.5 20.5t37.5 7.5t37.5 -7.5t30 -20.5t20 -30.5t7.5 -36.5q0 -20 -7.5 -37t-20 -30t-30 -20.5t-37.5 -7.5t-37.5 7.5t-30.5 20.5t-20 30t-7 37z" />
    <glyph glyph-name="uring" unicode="&#x16f;" 
d="M372 0h-68v57q-26 -26 -59 -46.5t-59 -20.5q-54 0 -84 32t-30 104v394h72v-384q0 -45 14 -65.5t43 -20.5q26 0 50.5 17t48.5 47v406h72v-520zM173 673q0 -21 16 -37t37 -16t37 16t16 37t-16 37t-37 16t-37 -16t-16 -37zM131 673q0 19 7 36.5t20 30.5t30.5 20.5t37.5 7.5
t37.5 -7.5t30 -20.5t20 -30.5t7.5 -36.5q0 -20 -7.5 -37t-20 -30t-30 -20.5t-37.5 -7.5t-37.5 7.5t-30.5 20.5t-20 30t-7 37z" />
    <glyph glyph-name="Uhungarumlaut" unicode="&#x170;" horiz-adv-x="500" 
d="M144 722v-530q0 -27 4.5 -52t16.5 -43.5t32.5 -29.5t52.5 -11t52.5 11t32.5 29.5t16.5 43.5t4.5 52v530h78v-532q0 -44 -10.5 -80.5t-33 -63t-57 -41.5t-83.5 -15t-83.5 15t-57 41.5t-33 63t-10.5 80.5v532h78zM316 760h-50l98 138h78zM200 760h-48l90 138h80z" />
    <glyph glyph-name="uhungarumlaut" unicode="&#x171;" 
d="M372 0h-68v57q-26 -26 -59 -46.5t-59 -20.5q-54 0 -84 32t-30 104v394h72v-384q0 -45 14 -65.5t43 -20.5q26 0 50.5 17t48.5 47v406h72v-520zM287 578h-50l98 138h78zM171 578h-48l90 138h80z" />
    <glyph glyph-name="Uogonek" unicode="&#x172;" horiz-adv-x="500" 
d="M144 722v-530q0 -27 4.5 -52t16.5 -43.5t32.5 -29.5t52.5 -11t52.5 11t32.5 29.5t16.5 43.5t4.5 52v530h78v-532q0 -44 -10.5 -80.5t-33 -63t-57.5 -41.5q-12 -5 -26 -8q-23 -13 -46 -29q-24 -17 -41 -38.5t-17 -46.5q0 -27 16 -39t43 -12q28 0 57.5 14.5t48.5 26.5
l16 -32q-30 -21 -69.5 -38t-77.5 -17q-34 0 -61 20.5t-27 65.5q0 37 22 63.5t54 45.5q9 5 17 9q-44 1 -76 15q-34 15 -56.5 41.5t-33 63t-10.5 80.5v532h78z" />
    <glyph glyph-name="uogonek" unicode="&#x173;" 
d="M372 0h-12q-16 -6 -31 -13q-17 -8 -38 -23t-35 -35.5t-14 -45.5q0 -26 14.5 -38.5t37.5 -12.5q24 0 42.5 8t40.5 23l16 -32q-28 -21 -53.5 -33t-61.5 -12t-63 21t-27 64q0 36 20.5 63t47.5 44q25 15 49 22h-1v57q-26 -26 -59 -46.5t-59 -20.5q-54 0 -84 32t-30 104v394
h72v-384q0 -45 14 -65.5t43 -20.5q26 0 50.5 17t48.5 47v406h72v-520z" />
    <glyph glyph-name="Wcircumflex" unicode="&#x174;" horiz-adv-x="611" 
d="M78 722l86 -564h2l108 564h64l112 -564h2l80 564h72l-116 -722h-66l-114 567h-2l-114 -567h-66l-120 722h72zM274 898h68l101 -138h-64l-71 102l-71 -102h-64z" />
    <glyph glyph-name="wcircumflex" unicode="&#x175;" horiz-adv-x="556" 
d="M86 520l74 -382h2l84 382h68l86 -382h2l68 382h68l-108 -520h-60l-90 404h-2l-90 -404h-60l-110 520h68zM245 716h68l101 -138h-64l-71 102l-71 -102h-64z" />
    <glyph glyph-name="Ycircumflex" unicode="&#x176;" 
d="M100 722l124 -316l120 316h84l-166 -416v-306h-78v306l-168 416h84zM187 898h68l101 -138h-64l-71 102l-71 -102h-64z" />
    <glyph glyph-name="ycircumflex" unicode="&#x177;" horiz-adv-x="333" 
d="M76 520l98 -398h2l80 398h74l-119 -509q-20 -86 -59 -133.5t-105 -47.5h-37v60h22q43 0 70 29.5t38 84.5l-138 516h74zM136 716h68l101 -138h-64l-71 102l-71 -102h-64z" />
    <glyph glyph-name="Zacute" unicode="&#x179;" 
d="M400 722v-54l-268 -602h268v-66h-356v56l260 600h-236v66h332zM242 760h-50l98 138h78z" />
    <glyph glyph-name="zacute" unicode="&#x17a;" horiz-adv-x="333" 
d="M39 520h270v-48l-206 -412h206v-60h-286v54l200 406h-184v60zM181 578h-50l98 138h78z" />
    <glyph glyph-name="Zdotaccent" unicode="&#x17b;" 
d="M400 722v-54l-268 -602h268v-66h-356v56l260 600h-236v66h332zM206 872h66v-102h-66v102z" />
    <glyph glyph-name="zdotaccent" unicode="&#x17c;" horiz-adv-x="333" 
d="M39 520h270v-48l-206 -412h206v-60h-286v54l200 406h-184v60zM146 690h66v-102h-66v102z" />
    <glyph glyph-name="Scommaaccent" unicode="&#x218;" 
d="M324 536q-2 28 -9 51.5t-20.5 41t-33.5 27.5t-48 10q-45 0 -72 -26.5t-27 -68.5q0 -41 21.5 -70t53.5 -54t70 -49t70 -54.5t53.5 -71t21.5 -98.5q0 -87 -47.5 -135.5t-137.5 -48.5q-42 0 -76 15t-57.5 42t-36 64.5t-13.5 82.5h72q2 -64 31.5 -101t87.5 -37q49 0 78 30.5
t29 88.5q0 41 -21.5 71.5t-53.5 56.5t-70 50.5t-70 54.5t-53.5 67t-21.5 89q0 38 12.5 69t35.5 53t55 34t71 12q78 0 125.5 -50.5t52.5 -145.5h-72zM260 -46v-77l-43 -93h-28l35 93h-37v77h73z" />
    <glyph glyph-name="scommaaccent" unicode="&#x219;" horiz-adv-x="389" 
d="M274 388q-5 17 -11.5 32t-16.5 26t-25 17.5t-37 6.5q-26 0 -42 -18t-16 -44t16.5 -45.5t40.5 -36.5t53 -34t53 -38.5t40.5 -50.5t16.5 -69q0 -31 -10.5 -57t-29.5 -45.5t-45 -30.5t-57 -11q-71 0 -109 36t-57 102l66 14q6 -17 14 -33.5t19.5 -29.5t26.5 -21t35 -8
q15 0 28.5 6.5t24 17t16.5 25t6 30.5q0 30 -16.5 51.5t-40.5 39t-53 34.5t-53 37.5t-40.5 47.5t-16.5 65q0 25 10 48t28 40.5t42.5 27.5t54.5 10q60 0 96 -32.5t49 -91.5zM229 -46v-77l-43 -93h-28l35 93h-37v77h73z" />
    <glyph glyph-name="uni021A" unicode="&#x21a;" horiz-adv-x="389" 
d="M381 722v-66h-148v-656h-78v656h-148v66h374zM230 -46v-77l-43 -93h-28l35 93h-37v77h73z" />
    <glyph glyph-name="uni021B" unicode="&#x21b;" horiz-adv-x="278" 
d="M8 520h70v174h72v-174h96v-60h-96v-364q0 -23 12.5 -37.5t39.5 -14.5q11 0 23 3.5t21 6.5v-54q-15 -5 -30 -7.5t-38 -2.5q-51 0 -75.5 26t-24.5 86v358h-70v60zM189 -46v-77l-43 -93h-28l35 93h-37v77h73z" />
    <glyph glyph-name="dotlessj" unicode="&#x237;" horiz-adv-x="222" 
d="M4 -106q7 -2 13 -3t11 -1q24 0 37 14.5t13 49.5v566h72v-572q0 -65 -26 -91.5t-80 -26.5q-10 0 -19.5 1t-20.5 3v60z" />
    <glyph glyph-name="caron" unicode="&#x2c7;" horiz-adv-x="222" 
d="M-24 716h64l71 -102l71 102h64l-101 -138h-68z" />
    <glyph glyph-name="uni02C9" unicode="&#x2c9;" horiz-adv-x="222" 
d="M-22 614v48h266v-48h-266z" />
    <glyph glyph-name="breve" unicode="&#x2d8;" horiz-adv-x="222" 
d="M20 710q4 -42 29 -61t66 -19q42 0 60.5 21t26.5 59h38q-5 -61 -39.5 -94.5t-95.5 -33.5q-28 0 -50 10t-38 27.5t-25 40.5t-10 50h38z" />
    <glyph glyph-name="dotaccent" unicode="&#x2d9;" horiz-adv-x="222" 
d="M78 690h66v-102h-66v102z" />
    <glyph glyph-name="ring" unicode="&#x2da;" horiz-adv-x="222" 
d="M58 673q0 -21 16 -37t37 -16t37 16t16 37t-16 37t-37 16t-37 -16t-16 -37zM16 673q0 19 7 36.5t20 30.5t30.5 20.5t37.5 7.5t37.5 -7.5t30 -20.5t20 -30.5t7.5 -36.5q0 -20 -7.5 -37t-20 -30t-30 -20.5t-37.5 -7.5t-37.5 7.5t-30.5 20.5t-20 30t-7 37z" />
    <glyph glyph-name="ogonek" unicode="&#x2db;" horiz-adv-x="222" 
d="M199 8q-19 -7 -46 -18t-51.5 -26t-41.5 -34.5t-17 -44.5q0 -29 16 -41t43 -12q28 0 57.5 14.5t48.5 26.5l16 -32q-30 -21 -69.5 -38t-77.5 -17q-34 0 -61 20.5t-27 65.5q0 38 22 63.5t54.5 42t68.5 25.5t65 15v-10z" />
    <glyph glyph-name="hungarumlaut" unicode="&#x2dd;" horiz-adv-x="222" 
d="M160 578h-50l98 138h78zM44 578h-48l90 138h80z" />
    <glyph glyph-name="uni0394" unicode="&#x394;" horiz-adv-x="667" 
d="M332 661l-239 -609h479zM17 0l284 712h63l288 -712h-635z" />
    <glyph glyph-name="uni03A9" unicode="&#x3a9;" horiz-adv-x="741" 
d="M436 0v179q95 17 142.5 81t47.5 158q0 56 -20.5 102.5t-56 80t-83.5 52t-103 18.5q-54 0 -102 -18.5t-83.5 -52t-56 -80t-20.5 -101.5q0 -45 12.5 -86t36.5 -73t59.5 -53.5t82.5 -27.5v-179h-245v48h201v92q-48 12 -85 39t-63 64t-39.5 82t-13.5 93q0 66 25.5 121.5
t69 96t101 63t122.5 22.5q64 0 121 -22.5t100 -62.5t68.5 -95.5t25.5 -120.5q0 -49 -13.5 -94t-39 -82t-62.5 -64t-85 -40v-92h201v-48h-245z" />
    <glyph glyph-name="uni03BC" unicode="&#x3bc;" 
d="M372 0h-68v57q-26 -26 -59 -46.5t-59 -20.5q-24 0 -42 6v-166h-72v690h72v-384q0 -45 14 -65.5t43 -20.5q26 0 50.5 17t48.5 47v406h72v-520z" />
    <glyph glyph-name="pi" unicode="&#x3c0;" horiz-adv-x="556" 
d="M532 10q-16 -8 -28.5 -11.5t-29.5 -3.5q-29 0 -44 9.5t-22 25t-8 36t-1 42.5v320h-274v-428h-53v428h-69l-1 48h525v-48h-74v-331q0 -11 0.5 -21t4 -17.5t11 -12t21.5 -4.5q21 0 42 10v-42z" />
    <glyph glyph-name="fraction" unicode="&#x2044;" horiz-adv-x="167" 
d="M-167 -10l439 742h62l-439 -742h-62z" />
    <glyph glyph-name="afii61289" unicode="&#x2113;" horiz-adv-x="500" 
d="M406 38q-53 -52 -120 -52q-50 0 -84.5 29.5t-34.5 94.5v130l-59 -64h-2l-21 27l82 84v264q0 84 34.5 127t83.5 43q44 0 71.5 -32t27.5 -91q0 -73 -43 -153.5t-123 -167.5v-159q0 -27 7.5 -45t18.5 -28.5t25 -14.5t27 -4q21 0 43.5 9.5t44.5 29.5h2zM341 593q0 41 -17 66
t-40 25q-26 0 -46 -30t-20 -96v-233q59 69 91 138.5t32 129.5z" />
    <glyph glyph-name="Omega" unicode="&#x2126;" horiz-adv-x="741" 
d="M436 0v179q95 17 142.5 81t47.5 158q0 56 -20.5 102.5t-56 80t-83.5 52t-103 18.5q-54 0 -102 -18.5t-83.5 -52t-56 -80t-20.5 -101.5q0 -45 12.5 -86t36.5 -73t59.5 -53.5t82.5 -27.5v-179h-245v48h201v92q-48 12 -85 39t-63 64t-39.5 82t-13.5 93q0 66 25.5 121.5
t69 96t101 63t122.5 22.5q64 0 121 -22.5t100 -62.5t68.5 -95.5t25.5 -120.5q0 -49 -13.5 -94t-39 -82t-62.5 -64t-85 -40v-92h201v-48h-245z" />
    <glyph glyph-name="estimated" unicode="&#x212e;" horiz-adv-x="600" 
d="M157 259v-181q59 -59 145 -59q63 0 109 28.5t84 91.5l35 -21q-23 -36 -46.5 -61.5t-51 -42t-59.5 -24t-71 -7.5q-59 0 -106.5 21.5t-81.5 59t-52 87.5t-18 108t18 108.5t52 87.5t81.5 58.5t106.5 21.5q58 0 105.5 -20.5t81.5 -57t53 -87t19 -111.5h-404zM448 295v145
q-63 60 -147 60t-144 -60v-145h291z" />
    <glyph glyph-name="partialdiff" unicode="&#x2202;" horiz-adv-x="480" 
d="M439 365q0 -35 -3 -77t-11.5 -84t-23.5 -81t-39 -69t-58.5 -48t-81.5 -18q-46 0 -82 19t-61 50t-38 71t-13 83q0 42 12.5 80.5t36.5 67.5t59.5 46t80.5 17q51 0 96 -25.5t75 -65.5q0 14 0.5 28t0.5 28q0 43 -8.5 93t-30 93t-57 71.5t-89.5 28.5q-35 0 -59.5 -12.5
t-50.5 -32.5l-30 37q29 27 63.5 41.5t74.5 14.5q55 0 103 -28q42 -25 68 -62.5t41 -81.5t20 -91.5t5 -92.5zM382 275q-13 19 -31 36.5t-39 31.5t-44 22.5t-47 8.5q-35 0 -61.5 -14t-44.5 -36.5t-27 -52.5t-9 -61t9.5 -62.5t27.5 -57t44.5 -41.5t61.5 -16q45 0 74.5 24.5
t47.5 61.5t26.5 79t11.5 77z" />
    <glyph glyph-name="Delta" unicode="&#x2206;" horiz-adv-x="667" 
d="M332 661l-239 -609h479zM17 0l284 712h63l288 -712h-635z" />
    <glyph glyph-name="product" unicode="&#x220f;" horiz-adv-x="704" 
d="M577 -214v948h-450v-948h-54v1000h558v-1000h-54z" />
    <glyph glyph-name="summation" unicode="&#x2211;" horiz-adv-x="593" 
d="M26 -214v47l335 455l-321 451v47h515v-52h-447l318 -446l-337 -451h478v-51h-541z" />
    <glyph glyph-name="minus" unicode="&#x2212;" horiz-adv-x="600" 
d="M40 293h520v-66h-520v66z" />
    <glyph glyph-name="uni2215" unicode="&#x2215;" horiz-adv-x="167" 
d="M-167 -10l439 742h62l-439 -742h-62z" />
    <glyph glyph-name="uni2219" unicode="&#x2219;" horiz-adv-x="222" 
d="M62 260q0 20 14.5 34.5t34.5 14.5t34.5 -14.5t14.5 -34.5t-14.5 -34.5t-34.5 -14.5t-34.5 14.5t-14.5 34.5z" />
    <glyph glyph-name="radical" unicode="&#x221a;" horiz-adv-x="481" 
d="M281 -214h-56l-168 346l-45 -22l-19 40l88 43l166 -346l194 939h49z" />
    <glyph glyph-name="infinity" unicode="&#x221e;" horiz-adv-x="722" 
d="M682 250q0 -30 -9 -55.5t-26 -44.5t-41.5 -29.5t-55.5 -10.5q-28 0 -54 9.5t-49 24.5t-44.5 34t-40.5 37q-21 -18 -42.5 -36.5t-44 -33.5t-47.5 -25t-55 -10t-54.5 10.5t-42 29t-27 43.5t-9.5 54q0 28 9.5 53.5t26.5 45t41 30.5t54 11q29 0 55 -10.5t49.5 -27t45 -36
t41.5 -37.5q21 18 41.5 37.5t42.5 36t47 27.5t55 11t54.5 -10.5t42.5 -29t27.5 -43.5t9.5 -55zM634 246q0 40 -21.5 67t-63.5 27q-21 0 -42 -9.5t-41 -24t-38 -31t-33 -29.5q16 -14 34 -29.5t37.5 -28.5t41 -21.5t44.5 -8.5q39 0 60.5 25.5t21.5 62.5zM328 246
q-16 12 -34.5 28t-38.5 30.5t-41.5 24.5t-43.5 10q-38 0 -60 -28t-22 -64q0 -39 23 -64t63 -25q20 0 41.5 8.5t41.5 22t38.5 28.5t32.5 29z" />
    <glyph glyph-name="integral" unicode="&#x222b;" horiz-adv-x="537" 
d="M395 742q0 -14 -9.5 -23t-23.5 -9t-21 6t-10.5 13.5t-6.5 14t-9 6.5q-12 0 -20 -13t-12.5 -33t-6 -44t-2 -46.5t0 -40.5t0.5 -25v-501v-47.5t-3 -56.5t-9.5 -57t-19.5 -50.5t-34 -36t-51 -13.5q-21 0 -38 11t-17 34q0 14 9 23t23 9q20 0 26 -12.5t14 -26.5q4 -2 6 -2
q11 0 18 13t11 33t6.5 43.5t3.5 44.5t1 36v18v495q0 21 -1 50.5t0.5 60.5t6.5 61.5t17.5 54.5t34 39t55.5 15q21 0 41 -9.5t20 -34.5z" />
    <glyph glyph-name="approxequal" unicode="&#x2248;" horiz-adv-x="600" 
d="M561 390q-3 -25 -11 -48t-22.5 -41t-35.5 -29t-49 -11q-33 0 -71 11.5t-75.5 25.5t-73 25.5t-63.5 11.5q-36 0 -57 -25t-26 -58h-38q4 25 12 48.5t21.5 42t34 29.5t50.5 11q33 0 70.5 -11.5t75 -25.5t73.5 -25.5t65 -11.5q37 0 57 24t26 57h37zM561 229q-3 -25 -11 -48
t-22.5 -41t-35.5 -29t-49 -11q-34 0 -71.5 11.5t-75 25.5t-72.5 25.5t-64 11.5q-36 0 -57 -25t-26 -58h-38q4 25 12 48.5t21.5 42t34 29.5t50.5 11q33 0 71 -11.5t75.5 -25.5t73 -25.5t64.5 -11.5q37 0 57 24t26 57h37z" />
    <glyph glyph-name="notequal" unicode="&#x2260;" horiz-adv-x="600" 
d="M260 125l-75 -141l-42 23l64 118h-156v48h182l71 135h-253v48h280l77 145l42 -22l-66 -123h164v-48h-189l-73 -135h262v-48h-288z" />
    <glyph glyph-name="lessequal" unicode="&#x2264;" horiz-adv-x="600" 
d="M51 260v54l497 193v-54l-431 -166l431 -166v-54zM51 -25v48h497v-48h-497z" />
    <glyph glyph-name="greaterequal" unicode="&#x2265;" horiz-adv-x="600" 
d="M51 67v54l430 166l-430 166v54l497 -193v-54zM51 -25v48h497v-48h-497z" />
    <glyph glyph-name="lozenge" unicode="&#x25ca;" horiz-adv-x="593" 
d="M322 -35h-53l-167 391l167 391h53l169 -391zM296 691l-140 -335l140 -335l142 335z" />
    <glyph glyph-name="grave.cap" unicode="&#xe300;" horiz-adv-x="222" 
d="M-8 898h78l98 -138h-50z" />
    <glyph glyph-name="acute.cap" unicode="&#xe301;" horiz-adv-x="222" 
d="M104 760h-50l98 138h78z" />
    <glyph glyph-name="circumflex.cap" unicode="&#xe302;" horiz-adv-x="222" 
d="M77 898h68l101 -138h-64l-71 102l-71 -102h-64z" />
    <glyph glyph-name="caron.cap" unicode="&#xe303;" horiz-adv-x="222" 
d="M-24 898h64l71 -102l71 102h64l-101 -138h-68z" />
    <glyph glyph-name="tilde.cap" unicode="&#xe304;" horiz-adv-x="222" 
d="M-30 770q0 16 5.5 33.5t15.5 31.5t24 23.5t32 9.5q19 0 36.5 -7t34.5 -15t32 -15t28 -7q22 0 29 15.5t9 34.5h36q-1 -18 -5.5 -36t-13.5 -31.5t-23.5 -22t-35.5 -8.5q-16 0 -32.5 7t-33.5 15t-32.5 15t-29.5 7q-21 0 -29.5 -15.5t-10.5 -34.5h-36z" />
    <glyph glyph-name="dieresis.cap" unicode="&#xe305;" horiz-adv-x="222" 
d="M144 872h66v-102h-66v102zM12 872h66v-102h-66v102z" />
    <glyph glyph-name="macron.cap" unicode="&#xe306;" horiz-adv-x="222" 
d="M-22 796v48h266v-48h-266z" />
    <glyph glyph-name="breve.cap" unicode="&#xe307;" horiz-adv-x="222" 
d="M20 892q4 -42 29 -61t66 -19q42 0 60.5 21t26.5 59h38q-5 -61 -39.5 -94.5t-95.5 -33.5q-28 0 -50 10t-38 27.5t-25 40.5t-10 50h38z" />
    <glyph glyph-name="ring.cap" unicode="&#xe308;" horiz-adv-x="222" 
d="M58 855q0 -21 16 -37t37 -16t37 16t16 37t-16 37t-37 16t-37 -16t-16 -37zM16 855q0 19 7 36.5t20 30.5t30.5 20.5t37.5 7.5t37.5 -7.5t30 -20.5t20 -30.5t7.5 -36.5q0 -20 -7.5 -37t-20 -30t-30 -20.5t-37.5 -7.5t-37.5 7.5t-30.5 20.5t-20 30t-7 37z" />
    <glyph glyph-name="hungarumlaut.cap" unicode="&#xe309;" horiz-adv-x="222" 
d="M160 760h-50l98 138h78zM44 760h-48l90 138h80z" />
    <glyph glyph-name="dotaccent.cap" unicode="&#xe30a;" horiz-adv-x="222" 
d="M78 872h66v-102h-66v102z" />
    <glyph glyph-name="caron.alt" unicode="&#xe30b;" horiz-adv-x="222" 
d="M151 722v-73l-42 -89h-27l34 89h-36v73h71z" />
    <glyph glyph-name="commaaccent" unicode="&#xe30c;" horiz-adv-x="222" 
d="M147 -46v-77l-43 -93h-28l35 93h-37v77h73z" />
    <glyph glyph-name="commaaccent.alt" unicode="&#xe30d;" horiz-adv-x="222" 
d="M80 578v64l38 74h24l-30 -74h32v-64h-64z" />
    <glyph glyph-name="uniF8FF" unicode="&#xf8ff;" horiz-adv-x="512" 
d="M222 117v67h56v-67h-56zM225 234l-2 17q0 55 13 81t46 59q32 31 41 47.5t9 35.5q0 36 -22.5 60.5t-53.5 24.5t-53.5 -22t-28.5 -73l-50 8q7 71 44 104t91 33q53 0 88.5 -36t35.5 -95q0 -32 -12.5 -58.5t-50.5 -61.5q-37 -33 -43 -52t-6 -72h-46zM462 50v617h-412v-617
h412zM512 718v-718h-512v718h512z" />
    </font>
</defs>
</svg>
