<svg xmlns="http://www.w3.org/2000/svg">
<defs>
<font id="AmnestyTradeGothic-Cn18Obl" horiz-adv-x="444" >
  <font-face 
    font-family="Amnesty Trade Gothic Cn"
    font-weight="400"
    font-style="italic"
    font-stretch="condensed"
    units-per-em="1000"
    panose-1="2 11 5 6 4 3 3 9 0 4"
    ascent="722"
    descent="-278"
    x-height="520"
    cap-height="722"
    bbox="-169 -216 1061 950"
    underline-thickness="50"
    underline-position="-125"
    slope="-12"
    unicode-range="U+000D-FB02"
  />
<missing-glyph horiz-adv-x="512" 
d="M222 117v67h56v-67h-56zM225 234l-2 17q0 55 13 81t46 59q32 31 41 47.5t9 35.5q0 36 -22.5 60.5t-53.5 24.5t-53.5 -22t-28.5 -73l-50 8q7 71 44 104t91 33q53 0 88.5 -36t35.5 -95q0 -32 -12.5 -58.5t-50.5 -61.5q-37 -33 -43 -52t-6 -72h-46zM462 50v617h-412v-617
h412zM512 718v-718h-512v718h512z" />
    <glyph glyph-name="IJ" unicode="IJ" horiz-adv-x="490" 
d="M306 722l-156 -722h-78l156 722h78zM580 722l-118 -542q-12 -56 -29.5 -92.5t-44 -58t-62 -30.5t-83.5 -9q-8 0 -17.5 2t-19.5 4l19 68q21 -8 44 -8q47 0 72.5 23.5t39.5 82.5l121 560h78z" />
    <glyph glyph-name="ij" unicode="ij" horiz-adv-x="430" 
d="M231 722h72l-18 -84h-72zM187 520h72l-112 -520h-72zM442 722h72l-18 -84h-72zM190 -106q6 -2 11.5 -3t10.5 -1q24 0 40 14.5t24 49.5l122 566h72l-124 -572q-14 -65 -45.5 -91.5t-85.5 -26.5q-9 0 -18.5 1t-19.5 3z" />
    <glyph glyph-name="napostrophe" unicode="&#x22;n" horiz-adv-x="494" 
d="M234 520h68l-12 -57q15 13 33 25t35.5 21.5t34 15t29.5 5.5q44 0 67.5 -20.5t23.5 -65.5q0 -22 -6 -50l-85 -394h-72l83 384q5 25 5 39q0 47 -44 47q-26 0 -54 -17t-59 -47l-87 -406h-72zM232 722l-22 -100l-91 -144h-30l78 150h-40l21 94h84z" />
    <glyph glyph-name="fi" unicode="fi" 
d="M463 722h72l-18 -84h-72zM419 520h72l-112 -520h-72zM114 520h80l23 106q11 53 40.5 79.5t88.5 26.5q14 0 28 -2t27 -4l-12 -56q-16 8 -38 8q-26 0 -42 -15t-21 -40l-22 -103h84l-13 -60h-84l-99 -460h-72l99 460h-80z" />
    <glyph glyph-name="fl" unicode="fl" 
d="M463 722h72l-156 -722h-72zM114 520h80l23 106q11 53 40.5 79.5t88.5 26.5q14 0 28 -2t27 -4l-12 -56q-16 8 -38 8q-26 0 -42 -15t-21 -40l-22 -103h84l-13 -60h-84l-99 -460h-72l99 460h-80z" />
    <glyph glyph-name=".notdef" horiz-adv-x="512" 
d="M222 117v67h56v-67h-56zM225 234l-2 17q0 55 13 81t46 59q32 31 41 47.5t9 35.5q0 36 -22.5 60.5t-53.5 24.5t-53.5 -22t-28.5 -73l-50 8q7 71 44 104t91 33q53 0 88.5 -36t35.5 -95q0 -32 -12.5 -58.5t-50.5 -61.5q-37 -33 -43 -52t-6 -72h-46zM462 50v617h-412v-617
h412zM512 718v-718h-512v718h512z" />
    <glyph glyph-name="nonmarkingreturn" unicode="&#xd;" horiz-adv-x="278" 
 />
    <glyph glyph-name="space" unicode=" " horiz-adv-x="222" 
 />
    <glyph glyph-name="exclam" unicode="!" horiz-adv-x="333" 
d="M228 94l-20 -94h-84l20 94h84zM280 722h84l-126 -508h-52z" />
    <glyph glyph-name="quotedbl" unicode="&#x22;" horiz-adv-x="333" 
d="M355 722h62l-56 -256h-62zM228 722h62l-56 -256h-62z" />
    <glyph glyph-name="numbersign" unicode="#" 
d="M279 439l-52 -156h100l51 156h-99zM451 227h-84l-74 -227h-59l74 227h-99l-74 -227h-59l75 227h-84l12 56h90l52 156h-83l12 56h88l75 227h58l-74 -227h99l74 227h59l-75 -227h79l-12 -56h-84l-52 -156h78z" />
    <glyph glyph-name="dollar" unicode="$" 
d="M335 662q-36 -8 -63 -35.5t-35 -65.5q-3 -12 -3 -24q0 -29 15 -52t38 -43zM254 60q45 4 76 35.5t42 80.5q3 15 3 28q0 36 -18.5 63.5t-45.5 52.5zM152 198q-5 -28 -5 -49q0 -33 12.5 -56t44.5 -33l64 294q-20 16 -39.5 33t-35 36.5t-25 42.5t-9.5 51q0 19 4 36
q7 34 24.5 63t42 51.5t54.5 36.5t64 18l21 96h50l-21 -96q59 -9 87 -46.5t28 -94.5q0 -12 -1.5 -24.5t-3.5 -26.5h-72q3 18 3 35q0 32 -12.5 59.5t-41.5 37.5l-55 -255q21 -17 42 -35t38.5 -40t28 -48t10.5 -59q0 -11 -1 -22t-4 -24q-17 -78 -72 -125t-130 -54l-26 -116h-50
l26 116q-60 9 -89 47t-29 95q0 26 6 56h72z" />
    <glyph glyph-name="percent" unicode="%" horiz-adv-x="778" 
d="M228 566q-1 -5 -1.5 -10t-0.5 -10q0 -32 20.5 -54t56.5 -22q21 0 40 8t35 21t27 30.5t15 36.5q1 5 1.5 10t0.5 10q0 32 -20.5 54t-56.5 22q-21 0 -40 -8t-35 -21t-27 -30.5t-15 -36.5zM477 156q-1 -5 -1.5 -10t-0.5 -10q0 -32 20.5 -54t56.5 -22q21 0 40 8t35 21t27 30.5
t15 36.5q1 5 1.5 10t0.5 10q0 32 -20.5 54t-56.5 22q-21 0 -40 -8t-35 -21t-27 -30.5t-15 -36.5zM770 732l-575 -742h-58l575 742h58zM168 566q7 32 25 60.5t43.5 49.5t57 33.5t64.5 12.5q58 0 92 -35.5t34 -87.5q0 -8 -1 -16.5t-3 -16.5q-7 -32 -25 -60.5t-43.5 -49.5
t-57 -33.5t-64.5 -12.5q-58 0 -92 35.5t-34 87.5q0 8 1 16.5t3 16.5zM417 156q7 32 25 60.5t43.5 49.5t57 33.5t64.5 12.5q58 0 92 -35t34 -87q0 -18 -4 -34q-7 -32 -24.5 -60.5t-43 -49.5t-57 -33.5t-64.5 -12.5q-58 0 -92.5 35t-34.5 88q0 8 1 16.5t3 16.5z" />
    <glyph glyph-name="ampersand" unicode="&#x26;" horiz-adv-x="556" 
d="M316 585q-6 -29 -6 -52q0 -24 3.5 -45t7.5 -41q46 41 76 79t41 86q2 10 2 16q0 22 -11.5 36t-28.5 14q-29 0 -51 -20t-33 -73zM160 180q-4 -16 -4 -35q0 -41 24.5 -65t74.5 -24q30 0 61 18t53 42q-32 51 -57 108t-42 111q-17 -14 -34.5 -32.5t-32.5 -38.5t-26.5 -41.5
t-16.5 -42.5zM556 346q-9 -32 -18 -58.5t-20 -51.5t-25 -50.5t-33 -53.5q26 -41 71 -78l-53 -54q-18 9 -39.5 28t-36.5 40q-35 -34 -80 -56t-90 -22q-72 0 -111 36t-39 99q0 11 1 23.5t4 25.5q9 40 28 72t43 59t49.5 48.5t46.5 40.5q-6 21 -11 56t-5 71q0 15 1 29.5t4 28.5
q17 78 61.5 115.5t97.5 37.5t81.5 -29t28.5 -71q0 -13 -3 -26q-8 -38 -25.5 -68t-40.5 -56t-51 -49t-58 -46q31 -111 86 -199q23 39 38.5 79.5t28.5 82.5z" />
    <glyph glyph-name="quotesingle" unicode="'" horiz-adv-x="222" 
d="M236 722h62l-56 -256h-62z" />
    <glyph glyph-name="parenleft" unicode="(" horiz-adv-x="278" 
d="M166 -110q-26 63 -39.5 124t-13.5 127q0 40 5 82t15 88q13 61 32.5 115.5t45.5 105.5t60 100.5t77 99.5l41 -30q-75 -98 -121.5 -193t-68.5 -198q-18 -84 -18 -161q0 -114 39 -230z" />
    <glyph glyph-name="parenright" unicode=")" horiz-adv-x="278" 
d="M246 732q26 -63 39.5 -124t13.5 -127q0 -40 -5 -82t-15 -88q-13 -61 -32.5 -115.5t-45.5 -105.5t-60 -100.5t-77 -99.5l-42 30q75 98 121.5 193t69.5 198q9 42 13 81.5t4 78.5q0 59 -9.5 115.5t-29.5 115.5z" />
    <glyph glyph-name="asterisk" unicode="*" 
d="M357 564l159 70l5 -66l-160 -32l89 -112l-67 -44l-49 138l-109 -138l-49 44l139 112l-148 32l35 66l129 -70l14 158h66z" />
    <glyph glyph-name="plus" unicode="+" horiz-adv-x="600" 
d="M379 520h66l-49 -227h227l-14 -66h-227l-49 -227h-66l49 227h-227l14 66h227z" />
    <glyph glyph-name="comma" unicode="," horiz-adv-x="222" 
d="M173 94l-22 -100l-91 -144h-30l79 150h-40l20 94h84z" />
    <glyph glyph-name="hyphen" unicode="-" horiz-adv-x="333" 
d="M92 227l14 66h246l-14 -66h-246z" />
    <glyph glyph-name="period" unicode="." horiz-adv-x="222" 
d="M173 94l-20 -94h-84l20 94h84z" />
    <glyph glyph-name="slash" unicode="/" horiz-adv-x="278" 
d="M-12 -10l392 742h66l-393 -742h-65z" />
    <glyph glyph-name="zero" unicode="0" 
d="M402 361q15 69 22 119.5t7 86.5q0 58 -16.5 81.5t-47.5 23.5q-25 0 -47 -15.5t-43 -51.5t-40.5 -95.5t-38.5 -148.5q-30 -138 -30 -208q0 -57 17 -80t47 -23q25 0 47 15.5t43 51.5t40.5 95.5t39.5 148.5zM474 361q-21 -98 -47 -168t-57.5 -115t-69 -66.5t-81.5 -21.5
q-60 0 -90 39t-30 125q0 81 27 207q21 98 46.5 168t57 115t69 66.5t81.5 21.5q60 0 90.5 -39.5t30.5 -126.5q0 -81 -27 -205z" />
    <glyph glyph-name="one" unicode="1" 
d="M266 0h-73h-87l12 60h88l126 580l-92 -8l10 44q32 8 64.5 21.5t61.5 34.5h48l-146 -672h84l-12 -60h-84z" />
    <glyph glyph-name="two" unicode="2" 
d="M48 0l12 60q28 53 64 99.5t74 88t76.5 80t70.5 76t55 75.5t32 79q2 11 3.5 21t1.5 19q0 38 -18.5 56t-48.5 18q-43 0 -79.5 -35.5t-58.5 -116.5h-66q16 61 39.5 102t51.5 65.5t59.5 34.5t64.5 10q60 0 94 -32t34 -95q0 -28 -7 -57q-10 -45 -30 -81t-48.5 -69.5t-63 -66.5
t-73 -72.5t-79.5 -87.5t-82 -111h274l-12 -60h-340z" />
    <glyph glyph-name="three" unicode="3" 
d="M185 578q10 32 26 60t38.5 49t51.5 33t64 12q26 0 49.5 -8t41 -23.5t28 -39.5t10.5 -56q0 -22 -6 -49q-17 -77 -53.5 -119.5t-77.5 -50.5v-2q42 -15 58 -47t16 -72q0 -15 -2 -30t-5 -31q-12 -56 -35.5 -96t-54 -66.5t-65 -39t-68.5 -12.5q-61 0 -94 37t-33 97q0 11 1 23
t4 25h66q-3 -18 -3 -34q0 -88 80 -88q18 0 37.5 9.5t37 28.5t32 47.5t22.5 65.5q7 31 7 58q0 54 -34 74.5t-104 20.5l13 60q40 0 70.5 6t52 21t36 42t23.5 69q6 28 6 49q0 38 -17.5 54.5t-46.5 16.5q-23 0 -41 -9t-31.5 -23.5t-22 -32.5t-13.5 -37z" />
    <glyph glyph-name="four" unicode="4" 
d="M140 224h163l93 432h-2zM483 722l-108 -498h75l-13 -60h-75l-35 -164h-72l35 164h-231l7 34l312 524h33h72z" />
    <glyph glyph-name="five" unicode="5" 
d="M158 168q-1 -6 -1 -13v-13q0 -17 3 -33.5t10.5 -29.5t20.5 -21t33 -8q47 0 88 47.5t61 141.5q10 47 10 83q0 53 -20 73.5t-50 20.5q-31 0 -61 -20.5t-46 -49.5l-53 10l103 366h254l-19 -60h-190l-62 -220q23 16 49.5 25t54.5 9q50 0 81.5 -36.5t31.5 -110.5
q0 -41 -10 -88q-14 -62 -38 -109t-55 -78.5t-66.5 -47.5t-71.5 -16q-33 0 -57 10t-39.5 28t-23 42t-7.5 52q0 19 3 40z" />
    <glyph glyph-name="six" unicode="6" 
d="M177 248q-13 -61 -13 -103q0 -51 18.5 -73t53.5 -22q21 0 40 8.5t35.5 28t30.5 51.5t24 79q10 44 10 77q0 49 -19.5 66.5t-45.5 17.5q-35 0 -65.5 -19t-53.5 -43zM437 588v13q0 23 -5.5 37t-14.5 21.5t-19.5 10t-20.5 2.5q-48 0 -91.5 -69t-77.5 -220q27 23 59 39t64 16
q49 0 83 -31t34 -105q0 -39 -10 -86q-23 -106 -77.5 -166t-126.5 -60q-67 0 -102 32.5t-35 118.5q0 68 24 181q24 109 53 186.5t63.5 127t73 73t81.5 23.5q32 0 53.5 -9t34.5 -25t18.5 -38.5t5.5 -50.5v-17z" />
    <glyph glyph-name="seven" unicode="7" 
d="M216 722h324l-8 -38l-358 -684h-76l353 662h-248z" />
    <glyph glyph-name="eight" unicode="8" 
d="M437 578q3 12 3 23q0 29 -17.5 50t-55.5 21q-23 0 -42 -8t-32.5 -21.5t-22.5 -30.5t-13 -34q-2 -11 -3.5 -21.5t-1.5 -21.5q0 -38 16 -67.5t44 -49.5q46 25 79.5 65t45.5 95zM366 179q4 17 4 36q0 43 -21.5 73.5t-52.5 57.5q-25 -16 -48 -33t-42 -37t-32.5 -44t-19.5 -53
q-4 -16 -4 -36q0 -36 19 -64.5t63 -28.5q28 0 50.5 12t39.5 30.5t28 41.5t16 45zM439 182q-9 -39 -28.5 -74t-48 -61t-65 -41.5t-78.5 -15.5q-70 0 -106 40.5t-36 101.5q0 24 6 50q14 67 57 116t103 86q-31 30 -48.5 61t-17.5 73q0 23 6 52q7 36 26.5 65.5t46 51t58.5 33.5
t66 12q59 0 95 -34t36 -91q0 -20 -4 -37q-14 -64 -48.5 -106t-91.5 -80q35 -30 56 -67.5t21 -85.5q0 -11 -1 -23.5t-4 -25.5z" />
    <glyph glyph-name="nine" unicode="9" 
d="M422 474q13 61 13 103q0 51 -18.5 73t-53.5 22q-21 0 -40 -8.5t-35.5 -28t-30.5 -51.5t-24 -79q-10 -44 -10 -77q0 -49 19.5 -66.5t45.5 -17.5q35 0 65.5 19t53.5 43zM163 134q0 -4 -0.5 -7.5t-0.5 -7.5q0 -22 5.5 -35.5t14.5 -21t19.5 -10t20.5 -2.5q48 0 91 69t78 220
q-27 -23 -59 -39t-64 -16q-49 0 -83 31.5t-34 105.5q0 39 10 85q23 106 77.5 166t126.5 60q67 0 102 -32.5t35 -118.5q0 -69 -24 -181q-24 -109 -53 -186.5t-63.5 -127t-73 -73t-81.5 -23.5q-64 0 -88 32.5t-24 86.5q0 5 0.5 10.5t0.5 10.5z" />
    <glyph glyph-name="colon" unicode=":" horiz-adv-x="222" 
d="M232 366l-21 -94h-84l21 94h84zM173 94l-20 -94h-84l20 94h84z" />
    <glyph glyph-name="semicolon" unicode=";" horiz-adv-x="222" 
d="M232 366l-21 -94h-84l21 94h84zM173 94l-22 -100l-91 -144h-30l79 150h-40l20 94h84z" />
    <glyph glyph-name="less" unicode="&#x3c;" horiz-adv-x="600" 
d="M560 3l-470 232l11 50l570 232l-15 -69l-462 -188l381 -188z" />
    <glyph glyph-name="equal" unicode="=" horiz-adv-x="600" 
d="M80 186h520l-15 -66h-520zM126 400h520l-14 -66h-520z" />
    <glyph glyph-name="greater" unicode="&#x3e;" horiz-adv-x="600" 
d="M55 72l463 188l-382 188l15 69l470 -232l-11 -50l-570 -232z" />
    <glyph glyph-name="question" unicode="?" horiz-adv-x="389" 
d="M215 94l-20 -94h-84l20 94h84zM177 214l11 50q12 58 39.5 98t58 74.5t57.5 71.5t39 90q3 13 3 23q0 26 -14 38.5t-31 12.5t-31 -8t-25.5 -20.5t-20 -27.5t-13.5 -30l-57 12q9 28 24 52.5t36 42.5t47 28.5t56 10.5q43 0 72.5 -24.5t29.5 -73.5q0 -19 -4 -36
q-9 -42 -26 -73.5t-38 -57.5t-44 -49t-43.5 -47t-37 -52.5t-24.5 -64.5l-8 -40h-56z" />
    <glyph glyph-name="at" unicode="@" horiz-adv-x="800" 
d="M393 204q33 0 66 21.5t60.5 54t47.5 69.5t27 67q1 5 1.5 9.5t0.5 9.5q0 30 -18 52.5t-45 22.5q-35 0 -68.5 -20.5t-61 -51.5t-47 -68t-26.5 -69q-3 -15 -3 -28q0 -32 17.5 -50.5t48.5 -18.5zM677 558h63l-147 -282q-16 -31 -21 -54q-1 -3 -1 -9q0 -16 17 -16
q27 0 57.5 20t59 52t50 72t30.5 80q6 30 6 56q0 47 -17.5 84t-48.5 62.5t-72.5 39t-89.5 13.5q-66 0 -127 -25t-111 -68t-85.5 -99.5t-49.5 -120.5q-8 -40 -8 -72q0 -54 18 -99t51 -77.5t78.5 -50.5t101.5 -18q35 0 72 8t72.5 23.5t68 37.5t59.5 50h63q-33 -41 -73.5 -73.5
t-86 -55t-93.5 -34.5t-96 -12q-68 0 -124 22t-95.5 60.5t-61 92t-21.5 116.5q0 40 9 82q16 77 60 144t105.5 117t135 79t149.5 29q61 0 112 -17.5t88 -50t58 -77.5t21 -99q0 -15 -1.5 -30.5t-5.5 -31.5q-14 -64 -48.5 -117t-78 -91t-89 -59t-80.5 -21q-23 0 -37 13t-14 39v6
q0 4 1 8l-3 -1q-26 -24 -63 -44.5t-73 -20.5q-54 0 -83.5 33.5t-29.5 84.5q0 9 1 18.5t3 19.5q11 51 39 101t67 90t87.5 64.5t101.5 24.5q35 0 60.5 -18t34.5 -60z" />
    <glyph glyph-name="A" unicode="A" 
d="M201 280h162l4 388h-2zM432 722l3 -722h-78l3 214h-184l-89 -214h-78l315 722h108z" />
    <glyph glyph-name="B" unicode="B" horiz-adv-x="500" 
d="M233 412h44q42 0 74 7t55 22.5t38 40.5t23 62q2 11 3.5 21t1.5 19q0 39 -26 55.5t-83 16.5h-78zM158 66h78q71 0 114.5 32t58.5 102q6 27 6 49q0 48 -28 72.5t-91 24.5h-78zM222 722h77h115q68 0 102.5 -34.5t34.5 -93.5q0 -23 -6 -50q-11 -54 -46.5 -98.5t-97.5 -61.5
l-1 -2q49 -14 71 -47t22 -81q0 -26 -6 -54q-22 -101 -89 -150.5t-186 -49.5h-68h-78z" />
    <glyph glyph-name="C" unicode="C" horiz-adv-x="500" 
d="M471 504q2 16 3 29.5t1 25.5q0 56 -19 81.5t-57 25.5q-34 0 -62.5 -16t-52.5 -52t-44 -94.5t-38 -142.5q-25 -113 -25 -183q0 -66 22.5 -94t67.5 -28q27 0 50.5 10t43 32t35 57t27.5 85h78q-27 -121 -91.5 -185.5t-157.5 -64.5q-71 0 -111 43.5t-40 145.5q0 37 5.5 82
t17.5 100q22 102 52 173t66.5 115t79.5 63.5t91 19.5q69 0 105 -40t36 -124q0 -15 -1.5 -31t-3.5 -33h-78z" />
    <glyph glyph-name="D" unicode="D" horiz-adv-x="500" 
d="M158 66h42q43 0 78.5 11.5t65.5 43.5t55 89.5t45 150.5q11 48 15.5 86t4.5 68q0 43 -9.5 70t-27.5 43t-43.5 22t-56.5 6h-42zM222 722h77h57q43 0 78 -10t59 -33t37 -60.5t13 -92.5q0 -68 -21 -165q-23 -104 -54.5 -173.5t-72 -111t-89.5 -59t-106 -17.5h-56h-78z" />
    <glyph glyph-name="E" unicode="E" 
d="M552 722l-15 -66h-252l-53 -246h186l-14 -66h-186l-60 -278h264l-14 -66h-265h-77l156 722h77h253z" />
    <glyph glyph-name="F" unicode="F" horiz-adv-x="389" 
d="M222 722h77h233l-15 -66h-232l-53 -246h174l-14 -66h-174l-74 -344h-78z" />
    <glyph glyph-name="G" unicode="G" horiz-adv-x="500" 
d="M474 500q2 16 3.5 31t1.5 29q0 48 -18 77t-64 29q-33 0 -60.5 -15.5t-51.5 -51.5t-44.5 -94.5t-38.5 -143.5q-25 -113 -25 -183q0 -66 22.5 -94t65.5 -28q55 0 90 29t47 85l22 102h-98l15 66h98h78l-73 -338h-50l1 54q-29 -30 -64.5 -47t-80.5 -17q-70 0 -109.5 43
t-39.5 145q0 37 5.5 82.5t17.5 100.5q22 102 52 173t66 115t78.5 63.5t90.5 19.5q41 0 69 -14t45 -37.5t24 -55t7 -66.5q0 -14 -1 -29t-3 -30h-78z" />
    <glyph glyph-name="H" unicode="H" horiz-adv-x="500" 
d="M300 722l-68 -312h212l68 312h78l-156 -722h-78l74 344h-212l-74 -344h-78l156 722h78z" />
    <glyph glyph-name="I" unicode="I" horiz-adv-x="222" 
d="M306 722l-156 -722h-78l156 722h78z" />
    <glyph glyph-name="J" unicode="J" horiz-adv-x="278" 
d="M368 722l-118 -542q-12 -56 -29.5 -92.5t-44 -58t-62 -30.5t-83.5 -9q-8 0 -17.5 2t-19.5 4l19 68q21 -8 44 -8q47 0 72.5 23.5t39.5 82.5l121 560h78z" />
    <glyph glyph-name="K" unicode="K" 
d="M290 722l-80 -368h2l282 368h84l-195 -252l65 -470h-84l-50 390h-2l-130 -168l-48 -222h-78l156 722h78z" />
    <glyph glyph-name="L" unicode="L" horiz-adv-x="389" 
d="M300 722l-142 -656h234l-14 -66h-235h-77l156 722h78z" />
    <glyph glyph-name="M" unicode="M" horiz-adv-x="611" 
d="M283 722h53l8 -546h2l241 546h52h72l-156 -722h-72l143 662h-2l-293 -662h-51l-7 662h-2l-143 -662h-72l156 722h71z" />
    <glyph glyph-name="N" unicode="N" horiz-adv-x="500" 
d="M290 722h44l71 -532h2l115 532h78l-156 -722h-84l-89 628h-2l-135 -628h-78l156 722h78z" />
    <glyph glyph-name="O" unicode="O" horiz-adv-x="500" 
d="M454 361q24 114 24 179q0 37 -6.5 61t-17.5 38.5t-26.5 20.5t-33.5 6q-26 0 -52 -13t-50.5 -47.5t-47 -93.5t-42.5 -151q-24 -114 -24 -179q0 -37 6.5 -61t17.5 -38.5t26.5 -20.5t33.5 -6q26 0 52 13t50.5 47.5t47 93.5t42.5 151zM532 361q-22 -101 -52 -171.5
t-66.5 -115t-78.5 -64.5t-88 -20q-68 0 -107 44.5t-39 146.5q0 37 5.5 81.5t17.5 98.5q22 101 52 171.5t66 115t78 64.5t88 20q68 0 107 -45t39 -148q0 -75 -22 -178z" />
    <glyph glyph-name="P" unicode="P" 
d="M218 392h82q59 0 98.5 32t54.5 100q2 12 3.5 22.5t1.5 20.5q0 46 -26.5 67.5t-74.5 21.5h-82zM212 722h76h94q74 0 114.5 -39t40.5 -106q0 -25 -6 -53q-10 -45 -31.5 -81.5t-52.5 -62.5t-69.5 -40t-81.5 -14h-92l-70 -326h-78z" />
    <glyph glyph-name="Q" unicode="Q" horiz-adv-x="500" 
d="M310 204q24 -8 41.5 -23.5t29.5 -35.5q20 35 38 87.5t35 128.5q24 114 24 179q0 37 -6.5 61t-17.5 38.5t-26.5 20.5t-33.5 6q-26 0 -52 -13t-50.5 -47.5t-47 -93.5t-42.5 -151q-24 -114 -24 -179q0 -37 6.5 -61t17.5 -38.5t26.5 -20.5t33.5 -6q20 0 38.5 7t38.5 25
q-8 16 -18.5 28.5t-24.5 23.5zM461 -56q-42 2 -64.5 25t-35.5 57q-26 -19 -55 -27.5t-59 -8.5q-68 0 -107 44.5t-39 146.5q0 37 5.5 81.5t17.5 98.5q22 101 52 171.5t66 115t78 64.5t88 20q68 0 107 -45t39 -148q0 -75 -22 -178q-22 -101 -51.5 -171t-66.5 -115
q4 -11 9.5 -21.5t13 -19.5t17 -15t22.5 -7z" />
    <glyph glyph-name="R" unicode="R" horiz-adv-x="500" 
d="M231 406h68q84 0 123 32t52 93q5 25 5 41q0 42 -28.5 63t-97.5 21h-68zM222 722h77h97q75 0 119 -36t44 -103q0 -23 -6 -48q-13 -61 -51 -108.5t-103 -68.5l45 -358h-82l-42 342l-103 -4l-73 -338h-78z" />
    <glyph glyph-name="S" unicode="S" 
d="M440 536q3 18 3 35q0 42 -19 68.5t-67 26.5q-45 0 -78 -26.5t-42 -68.5q-3 -14 -3 -27q0 -31 16 -55.5t39.5 -45.5t51 -41.5t51 -45.5t39.5 -56.5t16 -74.5q0 -23 -6 -51q-19 -87 -77 -135.5t-148 -48.5q-71 0 -108 40t-37 108q0 26 6 56h72q-4 -20 -4 -42
q0 -45 23 -70.5t71 -25.5q49 0 84.5 30.5t47.5 88.5q3 15 3 28q0 32 -16 57t-39.5 47.5t-51 44.5t-51 46.5t-39.5 54.5t-16 69q0 17 5 42q8 38 27.5 69t47 53t62 34t73.5 12q67 0 104 -37t37 -108q0 -12 -1.5 -24.5t-3.5 -26.5h-72z" />
    <glyph glyph-name="T" unicode="T" horiz-adv-x="389" 
d="M537 722l-15 -66h-148l-141 -656h-78l141 656h-148l15 66h146h79h149z" />
    <glyph glyph-name="U" unicode="U" horiz-adv-x="500" 
d="M300 722l-115 -530q-3 -14 -5 -27.5t-2 -26.5q0 -36 18 -59t66 -23q32 0 55 11t38.5 29.5t25.5 43.5t16 52l115 530h78l-115 -532q-9 -44 -27.5 -80.5t-47 -63t-66.5 -41.5t-87 -15q-78 0 -113 37.5t-35 98.5q0 15 2 31t6 33l115 532h78z" />
    <glyph glyph-name="V" unicode="V" 
d="M250 722l3 -572h2l251 572h78l-326 -722h-72l-14 722h78z" />
    <glyph glyph-name="W" unicode="W" horiz-adv-x="611" 
d="M234 722l-36 -564h2l230 564h64l-10 -564h2l202 564h72l-272 -722h-66l8 567h-2l-236 -567h-66l36 722h72z" />
    <glyph glyph-name="X" unicode="X" 
d="M260 722l54 -256l158 256h84l-215 -338l89 -384h-84l-67 302l-181 -302h-84l239 384l-77 338h84z" />
    <glyph glyph-name="Y" unicode="Y" 
d="M256 722l55 -316l189 316h84l-256 -416l-66 -306h-78l66 306l-78 416h84z" />
    <glyph glyph-name="Z" unicode="Z" 
d="M556 722l-12 -54l-398 -602h268l-14 -66h-356l12 56l389 600h-236l15 66h332z" />
    <glyph glyph-name="bracketleft" unicode="[" horiz-adv-x="278" 
d="M216 722h65h119l-9 -40h-118l-160 -742h118l-9 -40h-119h-65z" />
    <glyph glyph-name="backslash" unicode="\" horiz-adv-x="278" 
d="M219 -10l-71 742h66l71 -742h-66z" />
    <glyph glyph-name="bracketright" unicode="]" horiz-adv-x="278" 
d="M196 -100h-66h-118l9 40h118l160 742h-118l9 40h116h68z" />
    <glyph glyph-name="asciicircum" unicode="^" horiz-adv-x="600" 
d="M428 722h56l117 -427h-72l-92 342l-240 -342h-72z" />
    <glyph glyph-name="underscore" unicode="_" horiz-adv-x="500" 
d="M-27 -125l11 50h499l-11 -50h-499z" />
    <glyph glyph-name="grave" unicode="`" horiz-adv-x="222" 
d="M146 716h78l69 -138h-50z" />
    <glyph glyph-name="a" unicode="a" 
d="M353 280q-26 -8 -59 -20.5t-63.5 -31t-53.5 -43t-29 -55.5q-3 -15 -3 -27q0 -25 14 -39t45 -14q29 0 58 17t53 37zM143 378q12 31 30 58.5t41 48.5t52 33t64 12q60 0 91 -27.5t31 -77.5q0 -18 -5 -43l-63 -290q-9 -44 -9 -70q0 -16 3 -22h-75v44q-13 -11 -29 -20.5
t-33 -17t-33 -12t-28 -4.5q-52 0 -81 26.5t-29 73.5q0 18 4 34q10 48 42 84.5t74 63t88.5 43t87.5 25.5l8 37q3 16 3 30q0 30 -15 46.5t-43 16.5q-21 0 -38.5 -9.5t-31.5 -24t-24.5 -32.5t-17.5 -36z" />
    <glyph glyph-name="b" unicode="b" 
d="M171 100q12 -23 30 -36.5t35 -13.5q22 0 42.5 10.5t38.5 34.5t34 64.5t29 100.5q16 73 16 119q0 51 -17.5 71t-49.5 20q-24 0 -46 -15t-42 -31zM122 0h-56q11 23 21 56t21 84l126 582h72l-52 -240q22 18 49.5 33t56.5 15q23 0 42.5 -8t34 -25.5t22.5 -45t8 -67.5
q0 -26 -3.5 -56.5t-11.5 -67.5q-17 -75 -40 -126.5t-50.5 -83.5t-57.5 -46t-61 -14q-35 0 -58 16t-37 44z" />
    <glyph glyph-name="c" unicode="c" horiz-adv-x="389" 
d="M355 366q1 8 1.5 16t0.5 15q0 41 -16.5 57t-45.5 16q-23 0 -41 -8.5t-34 -32t-29.5 -64.5t-27.5 -105q-19 -89 -19 -137q0 -44 15.5 -58.5t44.5 -14.5q17 0 32 5t28 18t25 35t24 56h70q-13 -38 -31.5 -70t-42.5 -55t-53.5 -36t-64.5 -13q-60 0 -88.5 33t-28.5 104
q0 53 17 133q30 141 82.5 205.5t134.5 64.5q64 0 91 -36t27 -99v-14t-1 -15h-70z" />
    <glyph glyph-name="d" unicode="d" 
d="M385 424q-12 16 -28 31t-40 15q-23 0 -43 -10.5t-37.5 -34.5t-32.5 -64.5t-28 -100.5q-16 -71 -16 -117q0 -52 18 -72.5t50 -20.5q17 0 41.5 13.5t45.5 36.5zM317 50h-2q-25 -28 -55 -44t-65 -16q-23 0 -43 7.5t-34 25t-22 45t-8 66.5q0 53 16 126q16 75 39 126.5
t50.5 83.5t57.5 46t61 14q29 0 50.5 -15t35.5 -33l52 240h72l-126 -582q-10 -45 -14 -75t-4 -52v-13h-68z" />
    <glyph glyph-name="e" unicode="e" horiz-adv-x="389" 
d="M347 308q11 55 11 88q0 38 -14.5 56t-48.5 18q-20 0 -37.5 -8t-32.5 -26.5t-28.5 -50t-23.5 -77.5h174zM160 248l-6 -29q-12 -56 -12 -90q0 -43 18 -61t54 -18q21 0 37.5 8.5t30 22.5t23.5 31.5t18 35.5l66 -8q-11 -29 -29.5 -56t-44 -48t-57 -33.5t-67.5 -12.5
q-60 0 -88.5 33t-28.5 104q0 53 17 133q30 141 82.5 205.5t134.5 64.5q62 0 90 -38t28 -106q0 -47 -12 -104l-8 -34h-246z" />
    <glyph glyph-name="f" unicode="f" horiz-adv-x="278" 
d="M130 520h80l23 106q11 53 40.5 79.5t88.5 26.5q14 0 28 -2t27 -4l-12 -56q-16 8 -38 8q-26 0 -42 -15t-21 -40l-22 -103h84l-13 -60h-84l-99 -460h-72l99 460h-80z" />
    <glyph glyph-name="g" unicode="g" 
d="M326 -42q1 3 1 8q0 15 -13.5 25t-34 16.5t-44.5 11t-45 9.5q-35 -14 -58 -31.5t-28 -39.5q-1 -4 -1.5 -7t-0.5 -7q0 -26 24 -42.5t76 -16.5q60 0 88.5 21t35.5 53zM214 345q-7 -34 -7 -60q0 -40 15.5 -55.5t39.5 -15.5q16 0 31 6.5t28.5 22t25 40.5t19.5 62q8 38 8 61
q0 38 -15.5 54t-39.5 16q-32 0 -60.5 -28.5t-44.5 -102.5zM508 464q-6 2 -11 2h-10q-14 0 -25.5 -5.5t-23.5 -14.5q1 -9 1.5 -17.5t0.5 -16.5q0 -14 -1.5 -30t-6.5 -36q-11 -49 -29 -84t-41.5 -57.5t-51.5 -33.5t-58 -11q-12 0 -23.5 2t-23.5 2q-10 -2 -25 -10.5t-18 -23.5
q0 -2 -0.5 -3.5t-0.5 -3.5q0 -12 9.5 -18.5t25.5 -11t36.5 -8t43.5 -8.5q24 -5 45 -12t37.5 -18t26 -27t9.5 -39q0 -13 -3 -29q-6 -26 -22.5 -48t-43 -38.5t-61 -26t-75.5 -9.5q-79 0 -118 24t-39 66q0 10 3 22q8 35 34 62t64 42q-18 6 -30 20.5t-12 34.5q0 5 2 15
q6 29 31 46.5t52 22.5q-19 15 -27 42t-8 57q0 13 1 25.5t4 24.5q20 94 72 145t121 51q26 0 51.5 -11.5t33.5 -36.5q17 21 41 34.5t57 13.5z" />
    <glyph glyph-name="h" unicode="h" 
d="M228 722h72l-56 -259q14 13 31 25t34 21.5t33.5 15t29.5 5.5q44 0 67.5 -20.5t23.5 -65.5q0 -22 -6 -50l-85 -394h-72l83 384q5 25 5 39q0 47 -44 47q-26 0 -54 -17t-59 -47l-87 -406h-72z" />
    <glyph glyph-name="i" unicode="i" horiz-adv-x="222" 
d="M231 722h72l-18 -84h-72zM187 520h72l-112 -520h-72z" />
    <glyph glyph-name="j" unicode="j" horiz-adv-x="222" 
d="M234 722h72l-18 -84h-72zM-18 -106q6 -2 11.5 -3t10.5 -1q24 0 40 14.5t24 49.5l122 566h72l-124 -572q-14 -65 -45.5 -91.5t-85.5 -26.5q-9 0 -18.5 1t-19.5 3z" />
    <glyph glyph-name="k" unicode="k" horiz-adv-x="389" 
d="M222 722h72l-99 -456h2l193 254h74l-132 -166l44 -354h-74l-33 282h-2l-96 -128l-33 -154h-72z" />
    <glyph glyph-name="l" unicode="l" horiz-adv-x="222" 
d="M231 722h72l-156 -722h-72z" />
    <glyph glyph-name="m" unicode="m" horiz-adv-x="667" 
d="M80 0l112 520h66l-12 -57q26 25 61.5 46t73.5 21q31 0 53 -18.5t26 -47.5q27 24 62 45t73 21q42 0 62.5 -22t20.5 -60q0 -19 -4 -38l-88 -410h-72l86 400q4 17 4 33q0 21 -10.5 29t-32.5 8q-33 0 -57.5 -18.5t-44.5 -35.5l-90 -416h-72l86 400q4 16 4 30q0 23 -11.5 31.5
t-34.5 8.5q-17 0 -31 -5t-26 -13t-22.5 -17.5t-19.5 -18.5l-90 -416h-72z" />
    <glyph glyph-name="n" unicode="n" 
d="M184 520h68l-12 -57q15 13 33 25t35.5 21.5t34 15t29.5 5.5q44 0 67.5 -20.5t23.5 -65.5q0 -22 -6 -50l-85 -394h-72l83 384q5 25 5 39q0 47 -44 47q-26 0 -54 -17t-59 -47l-87 -406h-72z" />
    <glyph glyph-name="o" unicode="o" horiz-adv-x="389" 
d="M163 260q-19 -89 -19 -137q0 -44 15.5 -58.5t44.5 -14.5q23 0 41.5 8.5t34 32t29.5 64t28 105.5q19 88 19 135q0 45 -15.5 60t-45.5 15q-23 0 -41 -8.5t-34 -32t-29.5 -64.5t-27.5 -105zM91 260q30 141 82.5 205.5t134.5 64.5q60 0 89 -33t29 -105q0 -52 -17 -132
q-31 -141 -83.5 -205.5t-134.5 -64.5q-60 0 -88.5 33t-28.5 104q0 53 17 133z" />
    <glyph glyph-name="p" unicode="p" 
d="M170 96q13 -16 28.5 -31t39.5 -15q23 0 43 10.5t37.5 34.5t33 64.5t28.5 100.5q15 72 15 116q0 53 -18 73.5t-50 20.5q-17 0 -41 -13.5t-46 -36.5zM239 470h2q24 28 54 44t65 16q23 0 42.5 -8t34 -25.5t22.5 -45t8 -67.5q0 -26 -3.5 -56.5t-11.5 -67.5
q-17 -75 -40 -126.5t-50.5 -83.5t-57.5 -46t-61 -14q-29 0 -50 15t-35 33l-45 -208h-72l149 690h60z" />
    <glyph glyph-name="q" unicode="q" 
d="M384 420q-11 23 -29.5 36.5t-35.5 13.5q-23 0 -43 -10.5t-38 -34.5t-33.5 -64.5t-28.5 -100.5q-16 -73 -16 -120q0 -50 17 -70t49 -20q24 0 46.5 15t41.5 31zM418 520h60l-149 -690h-72l45 208q-22 -18 -50 -33t-57 -15q-23 0 -43 7.5t-34 25t-22 45t-8 66.5q0 53 16 126
q16 75 39 126.5t50.5 83.5t57.5 46t61 14q35 0 58 -16t35 -44h2z" />
    <glyph glyph-name="r" unicode="r" horiz-adv-x="278" 
d="M178 520h72l-14 -63h2q21 24 39 38t35 22t35 10.5t39 2.5l-15 -68q-20 0 -39 -4t-37.5 -14.5t-37 -28t-39.5 -45.5l-80 -370h-72z" />
    <glyph glyph-name="s" unicode="s" horiz-adv-x="389" 
d="M357 388q-2 34 -15.5 58t-56.5 24q-26 0 -46 -18t-25 -44q-2 -10 -2 -15q0 -21 12.5 -37.5t31 -31.5t40 -29.5t40 -32.5t31 -40.5t12.5 -53.5q0 -8 -1 -16.5t-3 -17.5q-7 -31 -23.5 -57t-39.5 -45.5t-51.5 -30.5t-59.5 -11q-71 0 -101 36t-35 102l69 14q2 -17 6.5 -33.5
t13 -29.5t22 -21t33.5 -8q15 0 29.5 6.5t27.5 17t22.5 25t12.5 30.5q1 5 1.5 9.5t0.5 9.5q0 23 -12 41t-30.5 33.5t-40 30t-40 32t-30.5 39t-12 50.5q0 13 3 30q6 25 20.5 48t36.5 40.5t48.5 27.5t56.5 10q60 0 89 -32.5t29 -91.5z" />
    <glyph glyph-name="t" unicode="t" horiz-adv-x="278" 
d="M120 520h70l38 174h72l-38 -174h96l-13 -60h-96l-79 -364q-2 -10 -2 -15q0 -17 10 -27t33 -10q11 0 23.5 3.5t22.5 6.5l-11 -54q-17 -5 -32.5 -7.5t-38.5 -2.5q-41 0 -61 16t-20 52q0 18 6 44l77 358h-70z" />
    <glyph glyph-name="u" unicode="u" 
d="M372 0h-68l12 57q-16 -13 -34 -25t-35.5 -21.5t-34 -15t-29.5 -5.5q-44 0 -67 20t-23 65q0 22 6 51l85 394h72l-83 -384q-5 -25 -5 -40q0 -46 43 -46q26 0 54.5 17t58.5 47l88 406h72z" />
    <glyph glyph-name="v" unicode="v" horiz-adv-x="389" 
d="M202 520l7 -448h2l199 448h72l-240 -520h-96l-16 520h72z" />
    <glyph glyph-name="w" unicode="w" horiz-adv-x="556" 
d="M198 520l-9 -382h2l167 382h68l3 -382h2l151 382h68l-220 -520h-60l-3 404h-2l-177 -404h-60l2 520h68z" />
    <glyph glyph-name="x" unicode="x" horiz-adv-x="333" 
d="M113 520h74l47 -182l115 182h74l-166 -250l74 -270h-74l-50 204l-132 -204h-74l178 270z" />
    <glyph glyph-name="y" unicode="y" horiz-adv-x="333" 
d="M188 520l12 -398h2l166 398h74l-229 -509q-39 -86 -88 -133.5t-115 -47.5h-36l13 60h21q43 0 76.5 29.5t55.5 84.5l-26 516h74z" />
    <glyph glyph-name="z" unicode="z" horiz-adv-x="333" 
d="M151 520h270l-10 -48l-296 -412h206l-12 -60h-286l11 54l288 406h-184z" />
    <glyph glyph-name="braceleft" unicode="{" horiz-adv-x="278" 
d="M87 331q31 0 48 18t28 66l48 221q11 48 42 72t73 24h64l-9 -40h-52q-40 0 -51 -52l-51 -235q-5 -23 -15.5 -40t-23.5 -28t-28 -17t-29 -8v-2q22 -3 40 -18.5t18 -47.5q0 -12 -3 -27l-50 -235q-3 -12 -3 -21q0 -31 31 -31h52l-8 -40h-64q-35 0 -56 17t-21 52q0 12 3 27
l48 221q3 13 4 23t1 18q0 24 -11 33.5t-34 9.5z" />
    <glyph glyph-name="bar" unicode="|" horiz-adv-x="222" 
d="M236 732h66l-161 -742h-66z" />
    <glyph glyph-name="braceright" unicode="}" horiz-adv-x="278" 
d="M324 291q-31 0 -48 -18t-28 -66l-48 -221q-10 -48 -41 -72t-73 -24h-64l8 40h52q40 0 52 52l50 235q11 47 40 68t57 25v2q-23 3 -41 19t-18 49q0 11 3 25l51 235q1 5 1.5 9.5t0.5 9.5q0 33 -31 33h-52l9 40h64q35 0 55.5 -17t20.5 -51q0 -13 -3 -28l-48 -221
q-3 -13 -4 -23t-1 -18q0 -24 11 -33.5t34 -9.5z" />
    <glyph glyph-name="asciitilde" unicode="~" horiz-adv-x="600" 
d="M600 281q-13 -16 -28 -32t-33.5 -28.5t-40.5 -20t-48 -7.5t-53 9.5t-55 23.5q-26 12 -51 23.5t-46 11.5q-31 0 -57 -22.5t-50 -49.5l-27 50q13 16 28.5 32t34 28.5t40 20t47.5 7.5t53.5 -9.5t54.5 -23.5q26 -12 51.5 -23.5t46.5 -11.5q31 0 56.5 22.5t49.5 49.5z" />
    <glyph glyph-name="Euro" unicode="&#x20ac;" 
d="M544 577q-10 19 -21 35t-24.5 28t-30.5 19t-40 7q-37 0 -64.5 -17.5t-48 -47t-35.5 -67.5t-26 -79h233l-28 -60h-220l-20 -92h196l-28 -60h-178q-2 -17 -3.5 -33.5t-1.5 -32.5q0 -27 5 -49t16 -38t30 -25t48 -9q37 0 74.5 17.5t66.5 41.5l-16 -77q-32 -24 -69.5 -36
t-73.5 -12q-45 0 -75.5 13t-49 37t-26.5 57.5t-8 74.5q0 17 1.5 34.5t3.5 36.5h-64l28 60h45q4 27 12 58l7 34h-59l28 60h47q16 55 38.5 105.5t54.5 88.5t75.5 60.5t100.5 22.5q46 0 80.5 -19.5t56.5 -56.5z" />
    <glyph glyph-name="quotesinglbase" unicode="&#x201a;" horiz-adv-x="222" 
d="M170 94l-22 -100l-91 -144h-30l79 150h-40l20 94h84z" />
    <glyph glyph-name="florin" unicode="&#x192;" 
d="M12 -100q18 -10 40 -10q13 0 25.5 3.5t25.5 18.5t28.5 46t36 86t47 138.5t62.5 203.5h-88l13 60h92q21 84 46.5 139t54 88t61 46t68.5 13q12 0 24 -1t23 -3l-14 -64q-11 2 -21 5t-21 3q-22 0 -39.5 -6.5t-34 -29.5t-34.5 -68t-41 -122h86l-13 -60h-90
q-37 -124 -66.5 -213.5t-54.5 -151t-47.5 -99.5t-45.5 -58.5t-48 -27t-54 -6.5q-8 0 -17 1t-17 3z" />
    <glyph glyph-name="quotedblbase" unicode="&#x201e;" horiz-adv-x="389" 
d="M337 94l-22 -100l-91 -144h-30l79 150h-40l20 94h84zM170 94l-22 -100l-91 -144h-30l79 150h-40l20 94h84z" />
    <glyph glyph-name="ellipsis" unicode="&#x2026;" horiz-adv-x="1000" 
d="M562 94l-20 -94h-84l20 94h84zM895 94l-20 -94h-84l20 94h84zM229 94l-20 -94h-84l20 94h84z" />
    <glyph glyph-name="dagger" unicode="&#x2020;" horiz-adv-x="500" 
d="M193 552l155 -24q11 60 14 115.5t6 88.5h80q-6 -17 -14.5 -39.5t-18 -49t-19 -56t-16.5 -59.5l165 24l-17 -78l-155 24q-8 -45 -9.5 -92t-3.5 -82q-13 -30 -27 -76.5t-29 -102t-30.5 -115t-30.5 -114.5h-24q9 55 19.5 114.5t19.5 115t15 102t7 76.5q7 17 15 38t16.5 43.5
t16 46t13.5 46.5l-165 -24z" />
    <glyph glyph-name="daggerdbl" unicode="&#x2021;" horiz-adv-x="500" 
d="M528 474l-155 24q-8 -45 -9.5 -92t-3.5 -82q-7 -17 -15.5 -38t-17 -43.5t-16 -46.5t-13.5 -46l165 24l-17 -78l-155 24q-11 -60 -14 -115.5t-6 -88.5h-80q6 16 14.5 39t18 49.5t19 56t16.5 59.5l-165 -24l17 78l155 -24q8 45 10 92t4 82q7 17 15 38t16.5 43.5t16 46
t13.5 46.5l-165 -24l17 78l155 -24q11 60 14 115.5t6 88.5h80q-6 -17 -14.5 -39.5t-18 -49t-19 -56t-16.5 -59.5l165 24z" />
    <glyph glyph-name="circumflex" unicode="&#x2c6;" horiz-adv-x="222" 
d="M231 716h68l72 -138h-64l-49 102l-93 -102h-64z" />
    <glyph glyph-name="perthousand" unicode="&#x2030;" horiz-adv-x="1000" 
d="M200 574q-2 -5 -2 -10v-10q0 -30 19.5 -51t54.5 -21q20 0 38.5 7.5t33.5 20.5t25.5 29.5t14.5 34.5q1 5 1.5 9.5t0.5 9.5q0 30 -19.5 51.5t-54.5 21.5q-20 0 -38.5 -7.5t-33.5 -20.5t-25.5 -29.5t-14.5 -34.5zM772 148q-2 -5 -2 -10v-10q0 -30 19.5 -51t54.5 -21
q20 0 38.5 7.5t33.5 20.5t25.5 29.5t14.5 34.5q1 5 1.5 9t0.5 9q0 30 -20 52t-55 22q-20 0 -38.5 -7.5t-33.5 -20.5t-25 -29.5t-14 -34.5zM416 148q-2 -5 -2 -10v-10q0 -30 19.5 -51t54.5 -21q20 0 38.5 7.5t33.5 20.5t25.5 29.5t14.5 34.5q1 5 1.5 9t0.5 9q0 30 -20 52
t-55 22q-20 0 -38.5 -7.5t-33.5 -20.5t-25 -29.5t-14 -34.5zM716 732l-575 -742h-58l575 742h58zM360 148q6 30 24 56.5t42.5 47t54 32.5t59.5 12q26 0 48 -9.5t37.5 -25.5t24.5 -37.5t9 -46.5q0 -14 -3 -29q-7 -30 -24.5 -56.5t-42.5 -47t-54 -32.5t-59 -12q-26 0 -48 9
t-37.5 25t-24.5 37.5t-9 46.5q0 15 3 30zM716 148q6 30 24 56.5t42.5 47t54 32.5t59.5 12q26 0 48 -9.5t37.5 -25.5t24.5 -37.5t9 -46.5q0 -14 -3 -29q-7 -30 -24.5 -56.5t-42.5 -47t-54 -32.5t-59 -12q-26 0 -48 9t-37.5 25t-24.5 37.5t-9 46.5q0 15 3 30zM144 574
q6 30 24 56.5t42.5 47t54 32.5t59.5 12q26 0 48 -9.5t37.5 -25.5t24.5 -37.5t9 -46.5q0 -14 -3 -29q-6 -30 -24 -56.5t-43 -47t-54 -32.5t-59 -12q-26 0 -48 9.5t-37.5 25.5t-24.5 37.5t-9 46.5q0 14 3 29z" />
    <glyph glyph-name="Scaron" unicode="&#x160;" 
d="M440 536q3 18 3 35q0 42 -19 68.5t-67 26.5q-45 0 -78 -26.5t-42 -68.5q-3 -14 -3 -27q0 -31 16 -55.5t39.5 -45.5t51 -41.5t51 -45.5t39.5 -56.5t16 -74.5q0 -23 -6 -51q-19 -87 -77 -135.5t-148 -48.5q-71 0 -108 40t-37 108q0 26 6 56h72q-4 -20 -4 -42
q0 -45 23 -70.5t71 -25.5q49 0 84.5 30.5t47.5 88.5q3 15 3 28q0 32 -16 57t-39.5 47.5t-51 44.5t-51 46.5t-39.5 54.5t-16 69q0 17 5 42q8 38 27.5 69t47 53t62 34t73.5 12q67 0 104 -37t37 -108q0 -12 -1.5 -24.5t-3.5 -26.5h-72zM280 898h64l49 -102l93 102h64l-130 -138
h-68z" />
    <glyph glyph-name="guilsinglleft" unicode="&#x2039;" horiz-adv-x="333" 
d="M218 106l-90 154l157 154h68l-161 -154l94 -154h-68z" />
    <glyph glyph-name="OE" unicode="&#x152;" horiz-adv-x="722" 
d="M481 554q6 27 6 45q0 32 -19 43.5t-57 11.5q-36 0 -67.5 -13t-59 -46t-50.5 -90t-42 -144q-21 -98 -21 -157q0 -78 30.5 -107t82.5 -29q25 0 43.5 4.5t32 15.5t23 30.5t15.5 49.5zM454 66h246l-14 -66h-248h-73h-65q-52 0 -91 9t-65.5 30.5t-39.5 57t-13 89.5q0 35 6 78
t17 97q23 107 53.5 176.5t71.5 110.5t94.5 57.5t122.5 16.5h62h77h235l-15 -66h-234l-53 -246h178l-14 -66h-178z" />
    <glyph glyph-name="Zcaron" unicode="&#x17d;" 
d="M556 722l-12 -54l-398 -602h268l-14 -66h-356l12 56l389 600h-236l15 66h332zM281 898h64l49 -102l93 102h64l-130 -138h-68z" />
    <glyph glyph-name="quoteleft" unicode="&#x2018;" horiz-adv-x="222" 
d="M177 488l22 100l91 144h30l-79 -150h40l-20 -94h-84z" />
    <glyph glyph-name="quoteright" unicode="&#x2019;" horiz-adv-x="222" 
d="M306 722l-22 -100l-91 -144h-30l78 150h-40l21 94h84z" />
    <glyph glyph-name="quotedblleft" unicode="&#x201c;" horiz-adv-x="389" 
d="M177 488l22 100l91 144h30l-79 -150h40l-20 -94h-84zM344 488l22 100l91 144h30l-79 -150h40l-20 -94h-84z" />
    <glyph glyph-name="quotedblright" unicode="&#x201d;" horiz-adv-x="389" 
d="M473 722l-22 -100l-91 -144h-30l78 150h-40l21 94h84zM306 722l-22 -100l-91 -144h-30l78 150h-40l21 94h84z" />
    <glyph glyph-name="bullet" unicode="&#x2022;" horiz-adv-x="500" 
d="M147 361q8 37 29 70t51 57.5t65.5 38.5t73.5 14q66 0 106 -40t40 -102q0 -9 -1 -18.5t-3 -19.5q-8 -38 -29.5 -70.5t-51.5 -57.5t-66.5 -39t-73.5 -14q-32 0 -58.5 10.5t-45.5 29.5t-29.5 45t-10.5 56q0 21 4 40z" />
    <glyph glyph-name="endash" unicode="&#x2013;" horiz-adv-x="500" 
d="M51 236l10 48h500l-10 -48h-500z" />
    <glyph glyph-name="emdash" unicode="&#x2014;" horiz-adv-x="1000" 
d="M51 236l10 48h1000l-10 -48h-1000z" />
    <glyph glyph-name="tilde" unicode="&#x2dc;" horiz-adv-x="222" 
d="M97 588q4 16 13 33.5t22 31.5t29 23.5t34 9.5q19 0 35.5 -7t30.5 -15q15 -8 28.5 -15t26.5 -7q22 0 32.5 15.5t16.5 34.5h36q-5 -18 -13 -36t-20 -31.5t-28.5 -22t-37.5 -8.5q-16 0 -31.5 7t-29.5 15q-15 8 -29 15t-28 7q-21 0 -33.5 -15.5t-17.5 -34.5h-36z" />
    <glyph glyph-name="trademark" unicode="&#x2122;" horiz-adv-x="990" 
d="M516 668h-134l-80 -369h-66l80 369h-134l12 54h134h66h134zM570 299h-66l92 423h65h40l56 -321l194 321h39h67l-92 -423h-66l77 357h-2l-218 -357h-44l-62 357h-3z" />
    <glyph glyph-name="scaron" unicode="&#x161;" horiz-adv-x="389" 
d="M357 388q-2 34 -15.5 58t-56.5 24q-26 0 -46 -18t-25 -44q-2 -10 -2 -15q0 -21 12.5 -37.5t31 -31.5t40 -29.5t40 -32.5t31 -40.5t12.5 -53.5q0 -8 -1 -16.5t-3 -17.5q-7 -31 -23.5 -57t-39.5 -45.5t-51.5 -30.5t-59.5 -11q-71 0 -101 36t-35 102l69 14q2 -17 6.5 -33.5
t13 -29.5t22 -21t33.5 -8q15 0 29.5 6.5t27.5 17t22.5 25t12.5 30.5q1 5 1.5 9.5t0.5 9.5q0 23 -12 41t-30.5 33.5t-40 30t-40 32t-30.5 39t-12 50.5q0 13 3 30q6 25 20.5 48t36.5 40.5t48.5 27.5t56.5 10q60 0 89 -32.5t29 -91.5zM214 716h64l49 -102l93 102h64l-130 -138
h-68z" />
    <glyph glyph-name="guilsinglright" unicode="&#x203a;" horiz-adv-x="333" 
d="M91 106l162 154l-95 154h68l91 -154l-158 -154h-68z" />
    <glyph glyph-name="oe" unicode="&#x153;" horiz-adv-x="611" 
d="M571 308q11 55 11 88q0 38 -14.5 56t-48.5 18q-31 0 -59 -36.5t-51 -125.5h162zM151 260q-19 -89 -19 -137q0 -44 15.5 -58.5t44.5 -14.5q23 0 41.5 8.5t35 32t30.5 64t28 105.5q19 86 19 133q0 46 -16.5 61.5t-46.5 15.5q-23 0 -41 -8.5t-34 -32t-29.5 -64.5t-27.5 -105
zM396 248l-6 -29q-11 -53 -11 -84q0 -48 17 -66.5t42 -18.5q21 0 37.5 8.5t30 22.5t23 31.5t16.5 35.5l66 -8q-10 -29 -28 -56t-43 -48t-54.5 -33.5t-61.5 -12.5q-17 0 -33.5 4t-30 13.5t-24 25t-16.5 38.5q-50 -81 -141 -81q-60 0 -88.5 33t-28.5 104q0 53 17 133
q30 141 82.5 205.5t134.5 64.5q48 0 74 -21t33 -67q29 45 62.5 66.5t66.5 21.5q62 0 90 -38t28 -106q0 -47 -12 -104l-8 -34h-234z" />
    <glyph glyph-name="zcaron" unicode="&#x17e;" horiz-adv-x="333" 
d="M151 520h270l-10 -48l-296 -412h206l-12 -60h-286l11 54l288 406h-184zM186 716h64l49 -102l93 102h64l-130 -138h-68z" />
    <glyph glyph-name="Ydieresis" unicode="&#x178;" 
d="M256 722l55 -316l189 316h84l-256 -416l-66 -306h-78l66 306l-78 416h84zM443 872h66l-22 -102h-66zM311 872h66l-22 -102h-66z" />
    <glyph glyph-name="uni00A0" unicode="&#xa0;" horiz-adv-x="222" 
 />
    <glyph glyph-name="exclamdown" unicode="&#xa1;" horiz-adv-x="333" 
d="M217 426l20 94h84l-20 -94h-84zM165 -202h-84l126 508h52z" />
    <glyph glyph-name="cent" unicode="&#xa2;" 
d="M345 477q-9 3 -22 3q-23 0 -41 -8.5t-34 -32t-29.5 -64.5t-27.5 -105q-10 -46 -15 -79t-5 -56q0 -12 1.5 -21t3.5 -17zM209 63q10 -3 23 -3q17 0 32 5t28 18t25 35t24 56h70q-13 -38 -31 -70t-42 -55t-53.5 -36t-64.5 -13q-11 0 -19.5 1t-16.5 4l-53 -119h-48l60 136
q-41 33 -41 116q0 52 17 132q31 141 83 205.5t134 64.5q18 0 35 -3l49 113h48l-57 -130q23 -17 33 -46.5t10 -69.5v-14q0 -6 -1 -14h-70q1 8 1.5 15t0.5 14q0 26 -7 41z" />
    <glyph glyph-name="sterling" unicode="&#xa3;" 
d="M44 58q28 12 48.5 31.5t35.5 43t25 50t15 51.5q6 29 8 50t5 46h-78l13 60h66q0 17 -0.5 35t-0.5 36q0 22 1.5 44.5t6.5 45.5q10 48 29 82t44 56t53.5 32.5t57.5 10.5q38 0 63 -11t40 -30t21 -44.5t6 -54.5q0 -34 -6 -68h-66q3 25 3 48q0 45 -14.5 72.5t-52.5 27.5
t-64 -23.5t-40 -86.5q-6 -26 -7.5 -52t-1.5 -51v-39v-30h106l-13 -60h-94q-3 -20 -4 -41t-6 -43q-8 -33 -20 -65.5t-32 -64.5q16 -24 36 -41t49 -17q15 0 29.5 5.5t28 20.5t25 40.5t20.5 65.5h66q-13 -58 -29.5 -96.5t-38.5 -61.5t-50.5 -32.5t-64.5 -9.5q-35 0 -65 22.5
t-44 53.5q-26 -27 -57.5 -49t-66.5 -27z" />
    <glyph glyph-name="currency" unicode="&#xa4;" 
d="M156 361q-4 -19 -4 -39q0 -51 30 -82t85 -31q32 0 61 11.5t52.5 31.5t40 48t23.5 61q4 19 4 39q0 51 -30 82t-85 31q-32 0 -61 -11.5t-52.5 -31.5t-40 -48t-23.5 -61zM426 143l-35 47q-31 -24 -67.5 -34.5t-70.5 -10.5t-66 10.5t-52 34.5l-57 -47l-32 42l56 49
q-11 14 -16 35t-5 44q0 12 1.5 24t3.5 24q8 35 26.5 70.5t44.5 56.5l-35 49l51 42l36 -47q31 24 67 34.5t70 10.5t66.5 -10.5t52.5 -34.5l56 47l33 -42l-57 -49q11 -14 16.5 -35.5t5.5 -45.5q0 -21 -5 -46q-8 -35 -27 -70.5t-45 -56.5l36 -49z" />
    <glyph glyph-name="yen" unicode="&#xa5;" 
d="M470 238h-160l-51 -238h-72l51 238h-160l13 60h160l2 8l-16 84h-126l13 60h102l-51 272h72l61 -332l201 332h72l-167 -272h102l-13 -60h-126l-52 -84l-2 -8h160z" />
    <glyph glyph-name="brokenbar" unicode="&#xa6;" horiz-adv-x="222" 
d="M236 732h66l-62 -284h-66zM137 274h66l-62 -284h-66z" />
    <glyph glyph-name="section" unicode="&#xa7;" horiz-adv-x="500" 
d="M215 396q0 -2 -0.5 -3.5t-0.5 -3.5q0 -19 15 -50t37.5 -60.5t48 -51t46.5 -21.5q23 0 42 18.5t24 40.5q1 3 1 10q0 22 -15 53.5t-36.5 60.5t-46 49t-43.5 20q-29 0 -47.5 -17t-24.5 -45zM476 614q-5 11 -13 22.5t-18.5 20.5t-23 15t-25.5 6q-35 0 -53 -15.5t-24 -43.5
q-1 -4 -1 -11q0 -21 13.5 -43.5t33 -47.5t43 -51t43 -54t33 -56.5t13.5 -58.5v-12t-2 -12q-11 -51 -49 -80t-87 -29q14 -22 25 -47t11 -54q0 -13 -3 -26q-6 -26 -21 -48.5t-35.5 -38.5t-45 -25t-50.5 -9q-53 0 -86.5 21.5t-55.5 62.5l56 38q10 -29 35.5 -48.5t60.5 -19.5
q26 0 48 19.5t27 44.5q1 5 1 14q0 23 -13.5 48t-33 50.5t-43 52.5t-43 55.5t-33 58t-13.5 61.5q0 13 3 27q5 23 19 41.5t33 31t41.5 19.5t44.5 7q-17 21 -27 43.5t-10 49.5q0 8 1 16t3 17q4 21 16.5 40t31 34t43.5 23.5t54 8.5q45 0 78 -23.5t55 -56.5z" />
    <glyph glyph-name="dieresis" unicode="&#xa8;" horiz-adv-x="222" 
d="M293 690h66l-22 -102h-66zM161 690h66l-22 -102h-66z" />
    <glyph glyph-name="copyright" unicode="&#xa9;" horiz-adv-x="800" 
d="M660 290q-32 -72 -91 -115.5t-128 -43.5q-42 0 -75 13t-55.5 36t-34.5 54.5t-12 69.5q0 28 6 58q10 49 34 91t59 73t79 48t95 17q67 0 111 -35.5t44 -103.5q0 -4 -0.5 -7t-0.5 -7h-63v2q0 39 -27 65t-76 26q-36 0 -66.5 -13t-53.5 -35.5t-39.5 -53t-23.5 -65.5
q-2 -12 -3.5 -23.5t-1.5 -22.5q0 -27 7.5 -50t22 -40t36.5 -27t51 -10q50 0 88 28t54 71h64zM411 50q64 0 124 23.5t109.5 65.5t85 99t50.5 124q4 19 6 36.5t2 34.5q0 52 -17.5 96t-49 75.5t-76 49.5t-99.5 18q-65 0 -125.5 -24t-110 -65.5t-85 -98t-49.5 -122.5
q-5 -20 -6.5 -38.5t-1.5 -35.5q0 -53 17.5 -96.5t49 -75t76.5 -49t100 -17.5zM398 -10q-66 0 -122 21.5t-96 60t-62.5 92t-22.5 117.5q0 39 9 81q17 79 61.5 146.5t106.5 117t136 78t151 28.5q66 0 121.5 -21.5t95.5 -60t62.5 -92t22.5 -117.5q0 -39 -9 -79
q-17 -80 -61.5 -148t-106.5 -117.5t-136 -78t-150 -28.5z" />
    <glyph glyph-name="ordfeminine" unicode="&#xaa;" horiz-adv-x="266" 
d="M296 574q-15 -5 -33.5 -12.5t-36 -18t-30.5 -23.5t-16 -28q-1 -5 -1.5 -8.5t-0.5 -6.5q0 -25 34 -25q19 0 36.5 10t27.5 22zM168 641q14 37 44 64t75 27q40 0 60.5 -17t20.5 -48q0 -11 -3 -24l-38 -174q-6 -26 -6 -42q0 -7 2 -13h-52l-2 18q-13 -12 -35 -18t-38 -6
q-34 0 -53 16t-19 46v10q0 6 2 12q6 29 26 51t46.5 37.5t55 26t52.5 15.5l4 18q1 5 1.5 9.5t0.5 8.5q0 30 -34 30q-26 0 -41.5 -16t-23.5 -37z" />
    <glyph glyph-name="guillemotleft" unicode="&#xab;" horiz-adv-x="500" 
d="M372 106l-90 154l157 154h68l-161 -154l94 -154h-68zM228 106l-90 154l157 154h68l-161 -154l94 -154h-68z" />
    <glyph glyph-name="logicalnot" unicode="&#xac;" horiz-adv-x="600" 
d="M566 334h-454l14 66h455h65l-61 -280h-66z" />
    <glyph glyph-name="uni00AD" unicode="&#xad;" horiz-adv-x="333" 
d="M92 227l14 66h246l-14 -66h-246z" />
    <glyph glyph-name="registered" unicode="&#xae;" horiz-adv-x="800" 
d="M408 388h72q30 0 51.5 2.5t36.5 10t24 20.5t14 35q2 5 2 9v9q0 23 -19 34.5t-64 11.5h-88zM355 142h-66l94 434h165q128 0 128 -90q0 -8 -1 -16t-3 -17q-6 -29 -19.5 -50.5t-31.5 -35.5t-38.5 -22t-41.5 -11l75 -192h-79l-74 190h-67zM411 50q64 0 124 23.5t109.5 65.5
t85 99t50.5 124q4 19 6 36.5t2 34.5q0 52 -17.5 96t-49 75.5t-76 49.5t-99.5 18q-65 0 -125.5 -24t-110 -65.5t-85 -98t-49.5 -122.5q-5 -20 -6.5 -38.5t-1.5 -35.5q0 -53 17.5 -96.5t49 -75t76.5 -49t100 -17.5zM398 -10q-66 0 -122 21.5t-96 60t-62.5 92t-22.5 117.5
q0 39 9 81q17 79 61.5 146.5t106.5 117t136 78t151 28.5q66 0 121.5 -21.5t95.5 -60t62.5 -92t22.5 -117.5q0 -39 -9 -79q-17 -80 -61.5 -148t-106.5 -117.5t-136 -78t-150 -28.5z" />
    <glyph glyph-name="macron" unicode="&#xaf;" horiz-adv-x="222" 
d="M110 614l11 48h266l-11 -48h-266z" />
    <glyph glyph-name="degree" unicode="&#xb0;" horiz-adv-x="400" 
d="M422 584q3 12 3 23q0 33 -21 56t-56 23q-21 0 -40 -8t-35 -22t-27.5 -32.5t-15.5 -39.5q-3 -12 -3 -23q0 -33 21 -56t56 -23q21 0 40 8t35 22t27 32.5t16 39.5zM178 584q6 30 23.5 57t42 47.5t54 32t60.5 11.5q54 0 86.5 -33t32.5 -84q0 -16 -3 -31q-7 -30 -24.5 -57
t-41.5 -47.5t-53.5 -32t-60.5 -11.5q-54 0 -87 33t-33 83q0 8 1 16t3 16z" />
    <glyph glyph-name="plusminus" unicode="&#xb1;" horiz-adv-x="600" 
d="M54 66h520l-14 -66h-520zM379 520h66l-37 -170h227l-14 -66h-227l-37 -170h-66l37 170h-227l14 66h227z" />
    <glyph glyph-name="twosuperior" unicode="&#xb2;" horiz-adv-x="266" 
d="M85 292l11 50q25 45 60.5 82t68.5 71t59 65t33 64q1 5 1.5 9.5t0.5 9.5q0 37 -34 37q-25 0 -45 -15.5t-34 -59.5h-50q10 37 25.5 61.5t33.5 39t38.5 20.5t41.5 6q39 0 62 -19.5t23 -57.5q0 -14 -3 -30q-9 -41 -35.5 -76t-59.5 -68t-67 -66t-59 -71h162l-11 -52h-222z" />
    <glyph glyph-name="threesuperior" unicode="&#xb3;" horiz-adv-x="266" 
d="M167 636q9 42 38 69t78 27q34 0 58.5 -19t24.5 -58q0 -13 -3 -28t-9 -31t-16 -30t-24 -25t-33 -15v-2q27 -9 37.5 -29t10.5 -44q0 -20 -4 -36q-14 -68 -52.5 -98.5t-84.5 -30.5q-45 0 -66.5 22t-21.5 58q0 13 3 30h54q-1 -5 -1 -9v-8q0 -18 9.5 -29.5t35.5 -11.5
q23 0 41.5 18.5t26.5 57.5q3 15 3 27q0 30 -20 42t-61 13l11 52h6q42 0 65 15t34 61q2 6 2 11v10q0 17 -7.5 26t-26.5 9q-25 0 -37 -11t-17 -33h-54z" />
    <glyph glyph-name="acute" unicode="&#xb4;" horiz-adv-x="222" 
d="M229 578h-50l127 138h78z" />
    <glyph glyph-name="mu" unicode="&#xb5;" 
d="M372 0h-68l12 57q-16 -13 -34 -25t-35.5 -21.5t-34 -15t-29.5 -5.5q-24 0 -40 6l-36 -166h-72l149 690h72l-83 -384q-5 -25 -5 -40q0 -46 43 -46q26 0 54.5 17t58.5 47l88 406h72z" />
    <glyph glyph-name="paragraph" unicode="&#xb6;" horiz-adv-x="500" 
d="M288 340q-79 0 -123.5 40t-44.5 105q0 11 1.5 21.5t3.5 21.5q11 52 37 88.5t60.5 60t74.5 34.5t80 11h57h87h68h69l-12 -54h-70l-163 -752h-66l163 752h-85l-163 -752h-66z" />
    <glyph glyph-name="periodcentered" unicode="&#xb7;" horiz-adv-x="222" 
d="M118 260q5 20 22 34.5t37 14.5q17 0 28.5 -11t11.5 -28q0 -6 -1 -10q-5 -20 -22.5 -34.5t-37.5 -14.5q-17 0 -28 10.5t-11 27.5q0 7 1 11z" />
    <glyph glyph-name="cedilla" unicode="&#xb8;" horiz-adv-x="222" 
d="M-11 -156q10 -5 25.5 -9.5t35.5 -4.5q30 0 50.5 11.5t25.5 29.5q1 3 1 8q0 14 -11.5 24.5t-34.5 10.5q-12 0 -22.5 -3t-21.5 -7l-11 14l78 82h38l-59 -58l2 -2q10 6 32 6q27 0 46 -13.5t19 -40.5q0 -5 -0.5 -9t-1.5 -9q-5 -21 -17 -37.5t-29.5 -28t-38 -18t-42.5 -6.5
q-29 0 -49 3.5t-39 12.5z" />
    <glyph glyph-name="onesuperior" unicode="&#xb9;" horiz-adv-x="266" 
d="M127 340h46l71 328l-49 -4l8 36q37 8 74 32h43l-85 -392h52l-10 -48h-53h-61h-46z" />
    <glyph glyph-name="ordmasculine" unicode="&#xba;" horiz-adv-x="233" 
d="M286 570q5 25 8 43t3 32q0 23 -8.5 32t-25.5 9q-13 0 -23 -5t-18 -18t-15.5 -35.5t-14.5 -57.5q-5 -26 -8 -44.5t-3 -32.5q0 -23 8 -31t24 -8q13 0 23.5 5t19 18t15.5 35.5t15 57.5zM136 570q18 85 50.5 123.5t86.5 38.5q40 0 59 -21t19 -66q0 -32 -9 -75
q-19 -85 -52 -123.5t-87 -38.5q-77 0 -77 85q0 34 10 77z" />
    <glyph glyph-name="guillemotright" unicode="&#xbb;" horiz-adv-x="500" 
d="M239 414l91 -154l-158 -154h-68l162 154l-95 154h68zM383 414l91 -154l-158 -154h-68l162 154l-95 154h68z" />
    <glyph glyph-name="onequarter" unicode="&#xbc;" horiz-adv-x="666" 
d="M471 148h83l44 207h-2zM143 340h46l71 328l-49 -4l8 36q37 8 74 32h43l-85 -392h52l-10 -48h-52h-62h-46zM88 -10l600 742h62l-600 -742h-62zM671 433l-61 -285h50l-12 -52h-50l-20 -96h-56l20 96h-139l10 45l183 292h20h55z" />
    <glyph glyph-name="onehalf" unicode="&#xbd;" horiz-adv-x="666" 
d="M143 340h46l71 328l-49 -4l8 36q37 8 74 32h43l-85 -392h52l-10 -48h-54h-63h-43zM418 0l10 50q26 45 61 82t68.5 71t59 65t32.5 64q2 5 2 10v10q0 36 -34 36q-25 0 -44.5 -15.5t-33.5 -59.5h-50q10 37 25 61.5t33 39t39 20.5t42 6q39 0 62 -19.5t23 -57.5q0 -14 -3 -30
q-9 -41 -35.5 -76t-59.5 -68t-67 -66t-59 -71h162l-11 -52h-222zM84 -10l600 742h62l-600 -742h-62z" />
    <glyph glyph-name="threequarters" unicode="&#xbe;" horiz-adv-x="666" 
d="M471 148h83l44 207h-2zM187 636q9 42 38 69t78 27q34 0 58.5 -19t24.5 -58q0 -13 -3 -28t-9 -31t-16 -30t-24 -25t-33 -15v-2q27 -9 37.5 -29t10.5 -44q0 -20 -4 -36q-14 -68 -52.5 -98.5t-84.5 -30.5q-45 0 -66.5 22t-21.5 58q0 13 3 30h54q-1 -5 -1 -9v-8
q0 -18 9.5 -29.5t35.5 -11.5q23 0 41.5 18.5t26.5 57.5q3 15 3 27q0 30 -20 42t-61 13l11 52h6q42 0 65 15t34 61q2 6 2 11v10q0 17 -7.5 26t-26.5 9q-25 0 -37 -11t-17 -33h-54zM84 -10l600 742h62l-600 -742h-62zM671 433l-61 -285h50l-12 -52h-50l-20 -96h-56l20 96h-139
l10 45l183 292h20h55z" />
    <glyph glyph-name="questiondown" unicode="&#xbf;" horiz-adv-x="389" 
d="M286 426l20 94h84l-20 -94h-84zM324 306l-11 -50q-8 -39 -24 -69t-35 -55.5t-39.5 -48t-39.5 -46.5t-34 -52t-22 -63q-3 -14 -3 -24q0 -26 14 -38t31 -12q16 0 30.5 8t26 20.5t19.5 27.5t13 30l58 -12q-9 -28 -24.5 -52.5t-36 -42.5t-46.5 -28.5t-56 -10.5
q-43 0 -72.5 24t-29.5 73q0 8 1 17.5t3 19.5q9 42 26 73.5t38 57.5t43.5 49t43 47t37 52t24.5 65l9 40h56z" />
    <glyph glyph-name="Agrave" unicode="&#xc0;" 
d="M201 280h162l4 388h-2zM432 722l3 -722h-78l3 214h-184l-89 -214h-78l315 722h108zM296 898h78l69 -138h-50z" />
    <glyph glyph-name="Aacute" unicode="&#xc1;" 
d="M201 280h162l4 388h-2zM432 722l3 -722h-78l3 214h-184l-89 -214h-78l315 722h108zM379 760h-50l127 138h78z" />
    <glyph glyph-name="Acircumflex" unicode="&#xc2;" 
d="M201 280h162l4 388h-2zM432 722l3 -722h-78l3 214h-184l-89 -214h-78l315 722h108zM381 898h68l72 -138h-64l-49 102l-93 -102h-64z" />
    <glyph glyph-name="Atilde" unicode="&#xc3;" 
d="M201 280h162l4 388h-2zM432 722l3 -722h-78l3 214h-184l-89 -214h-78l315 722h108zM247 770q4 16 13 33.5t22 31.5t29 23.5t34 9.5q19 0 35.5 -7t30.5 -15q15 -8 28.5 -15t26.5 -7q22 0 32.5 15.5t16.5 34.5h36q-5 -18 -13 -36t-20 -31.5t-28.5 -22t-37.5 -8.5
q-16 0 -31.5 7t-29.5 15q-15 8 -29 15t-28 7q-21 0 -33.5 -15.5t-17.5 -34.5h-36z" />
    <glyph glyph-name="Adieresis" unicode="&#xc4;" 
d="M201 280h162l4 388h-2zM432 722l3 -722h-78l3 214h-184l-89 -214h-78l315 722h108zM443 872h66l-22 -102h-66zM311 872h66l-22 -102h-66z" />
    <glyph glyph-name="Aring" unicode="&#xc5;" 
d="M201 280h162l4 388h-2zM432 722l3 -722h-78l3 214h-184l-89 -214h-78l315 722h108zM353 855q-1 -3 -1 -10q0 -18 12 -30.5t31 -12.5q21 0 40 16t24 37q1 3 1 10q0 18 -12 30.5t-30 12.5q-21 0 -40.5 -16t-24.5 -37zM311 855q4 19 15 36.5t27 30.5t35 20.5t39 7.5
q35 0 55.5 -21.5t20.5 -53.5q0 -5 -0.5 -10t-1.5 -10q-4 -20 -15 -37t-26.5 -30t-34.5 -20.5t-39 -7.5q-35 0 -56 21.5t-21 53.5q0 5 0.5 10t1.5 10z" />
    <glyph glyph-name="AE" unicode="&#xc6;" horiz-adv-x="722" 
d="M418 280l86 398h-2l-242 -398h158zM830 722l-15 -66h-238l-53 -246h186l-14 -66h-186l-60 -278h250l-14 -66h-251h-77l46 214h-184l-128 -214h-83l446 722h57h78h240z" />
    <glyph glyph-name="Ccedilla" unicode="&#xc7;" horiz-adv-x="500" 
d="M127 -156q11 -5 26.5 -9.5t35.5 -4.5q30 0 50.5 11.5t25.5 29.5q1 3 1 8q0 14 -11.5 24.5t-34.5 10.5q-12 0 -22.5 -3t-21.5 -7l-11 14l69 73q-63 5 -98 48.5t-35 139.5q0 37 5.5 82t17.5 100q22 102 52 173t66.5 115t79.5 63.5t91 19.5q69 0 105 -40t36 -124
q0 -15 -1.5 -31t-3.5 -33h-78q2 16 3 29.5t1 25.5q0 56 -19 81.5t-57 25.5q-34 0 -62.5 -16t-52.5 -52t-44 -94.5t-38 -142.5q-25 -113 -25 -183q0 -66 22.5 -94t67.5 -28q27 0 50.5 10t43 32t35 57t27.5 85h78q-26 -115 -85.5 -179t-144.5 -70l-49 -49l2 -2q10 6 32 6
q27 0 46 -13.5t19 -40.5q0 -5 -0.5 -9t-1.5 -9q-5 -21 -17 -37.5t-29.5 -28t-38 -18t-42.5 -6.5q-29 0 -49.5 3.5t-39.5 12.5z" />
    <glyph glyph-name="Egrave" unicode="&#xc8;" 
d="M552 722l-15 -66h-252l-53 -246h186l-14 -66h-186l-60 -278h264l-14 -66h-265h-77l156 722h77h253zM302 898h78l69 -138h-50z" />
    <glyph glyph-name="Eacute" unicode="&#xc9;" 
d="M552 722l-15 -66h-252l-53 -246h186l-14 -66h-186l-60 -278h264l-14 -66h-265h-77l156 722h77h253zM385 760h-50l127 138h78z" />
    <glyph glyph-name="Ecircumflex" unicode="&#xca;" 
d="M552 722l-15 -66h-252l-53 -246h186l-14 -66h-186l-60 -278h264l-14 -66h-265h-77l156 722h77h253zM387 898h68l72 -138h-64l-49 102l-93 -102h-64z" />
    <glyph glyph-name="Edieresis" unicode="&#xcb;" 
d="M552 722l-15 -66h-252l-53 -246h186l-14 -66h-186l-60 -278h264l-14 -66h-265h-77l156 722h77h253zM449 872h66l-22 -102h-66zM317 872h66l-22 -102h-66z" />
    <glyph glyph-name="Igrave" unicode="&#xcc;" horiz-adv-x="222" 
d="M306 722l-156 -722h-78l156 722h78zM186 897h78l69 -138h-50z" />
    <glyph glyph-name="Iacute" unicode="&#xcd;" horiz-adv-x="222" 
d="M306 722l-156 -722h-78l156 722h78zM268 760h-50l127 138h78z" />
    <glyph glyph-name="Icircumflex" unicode="&#xce;" horiz-adv-x="222" 
d="M306 722l-156 -722h-78l156 722h78zM270 898h68l72 -138h-64l-49 102l-93 -102h-64z" />
    <glyph glyph-name="Idieresis" unicode="&#xcf;" horiz-adv-x="222" 
d="M306 722l-156 -722h-78l156 722h78zM332 872h66l-22 -102h-66zM200 872h66l-22 -102h-66z" />
    <glyph glyph-name="Eth" unicode="&#xd0;" horiz-adv-x="500" 
d="M352 410l-14 -66h-120l-60 -278h42q43 0 78.5 11.5t65.5 43.5t55 89.5t45 150.5q11 48 15.5 86t4.5 68q0 43 -9.5 70t-27.5 43t-43.5 22t-56.5 6h-42l-53 -246h120zM154 410l68 312h76h58q43 0 78 -10t59 -33t37 -60.5t13 -92.5q0 -68 -21 -165q-23 -104 -54.5 -173.5
t-72 -111t-89.5 -59t-106 -17.5h-57h-77l74 344h-54l14 66h54z" />
    <glyph glyph-name="Ntilde" unicode="&#xd1;" horiz-adv-x="500" 
d="M290 722h44l71 -532h2l115 532h78l-156 -722h-84l-89 628h-2l-135 -628h-78l156 722h78zM275 770q4 16 13 33.5t22 31.5t29 23.5t34 9.5q19 0 35.5 -7t30.5 -15q15 -8 28.5 -15t26.5 -7q22 0 32.5 15.5t16.5 34.5h36q-5 -18 -13 -36t-20 -31.5t-28.5 -22t-37.5 -8.5
q-16 0 -31.5 7t-29.5 15q-15 8 -29 15t-28 7q-21 0 -33.5 -15.5t-17.5 -34.5h-36z" />
    <glyph glyph-name="Ograve" unicode="&#xd2;" horiz-adv-x="500" 
d="M454 361q24 114 24 179q0 37 -6.5 61t-17.5 38.5t-26.5 20.5t-33.5 6q-26 0 -52 -13t-50.5 -47.5t-47 -93.5t-42.5 -151q-24 -114 -24 -179q0 -37 6.5 -61t17.5 -38.5t26.5 -20.5t33.5 -6q26 0 52 13t50.5 47.5t47 93.5t42.5 151zM532 361q-22 -101 -52 -171.5
t-66.5 -115t-78.5 -64.5t-88 -20q-68 0 -107 44.5t-39 146.5q0 37 5.5 81.5t17.5 98.5q22 101 52 171.5t66 115t78 64.5t88 20q68 0 107 -45t39 -148q0 -75 -22 -178zM324 898h78l69 -138h-50z" />
    <glyph glyph-name="Oacute" unicode="&#xd3;" horiz-adv-x="500" 
d="M454 361q24 114 24 179q0 37 -6.5 61t-17.5 38.5t-26.5 20.5t-33.5 6q-26 0 -52 -13t-50.5 -47.5t-47 -93.5t-42.5 -151q-24 -114 -24 -179q0 -37 6.5 -61t17.5 -38.5t26.5 -20.5t33.5 -6q26 0 52 13t50.5 47.5t47 93.5t42.5 151zM532 361q-22 -101 -52 -171.5
t-66.5 -115t-78.5 -64.5t-88 -20q-68 0 -107 44.5t-39 146.5q0 37 5.5 81.5t17.5 98.5q22 101 52 171.5t66 115t78 64.5t88 20q68 0 107 -45t39 -148q0 -75 -22 -178zM407 760h-50l127 138h78z" />
    <glyph glyph-name="Ocircumflex" unicode="&#xd4;" horiz-adv-x="500" 
d="M454 361q24 114 24 179q0 37 -6.5 61t-17.5 38.5t-26.5 20.5t-33.5 6q-26 0 -52 -13t-50.5 -47.5t-47 -93.5t-42.5 -151q-24 -114 -24 -179q0 -37 6.5 -61t17.5 -38.5t26.5 -20.5t33.5 -6q26 0 52 13t50.5 47.5t47 93.5t42.5 151zM532 361q-22 -101 -52 -171.5
t-66.5 -115t-78.5 -64.5t-88 -20q-68 0 -107 44.5t-39 146.5q0 37 5.5 81.5t17.5 98.5q22 101 52 171.5t66 115t78 64.5t88 20q68 0 107 -45t39 -148q0 -75 -22 -178zM409 898h68l72 -138h-64l-49 102l-93 -102h-64z" />
    <glyph glyph-name="Otilde" unicode="&#xd5;" horiz-adv-x="500" 
d="M454 361q24 114 24 179q0 37 -6.5 61t-17.5 38.5t-26.5 20.5t-33.5 6q-26 0 -52 -13t-50.5 -47.5t-47 -93.5t-42.5 -151q-24 -114 -24 -179q0 -37 6.5 -61t17.5 -38.5t26.5 -20.5t33.5 -6q26 0 52 13t50.5 47.5t47 93.5t42.5 151zM532 361q-22 -101 -52 -171.5
t-66.5 -115t-78.5 -64.5t-88 -20q-68 0 -107 44.5t-39 146.5q0 37 5.5 81.5t17.5 98.5q22 101 52 171.5t66 115t78 64.5t88 20q68 0 107 -45t39 -148q0 -75 -22 -178zM275 770q4 16 13 33.5t22 31.5t29 23.5t34 9.5q19 0 35.5 -7t30.5 -15q15 -8 28.5 -15t26.5 -7
q22 0 32.5 15.5t16.5 34.5h36q-5 -18 -13 -36t-20 -31.5t-28.5 -22t-37.5 -8.5q-16 0 -31.5 7t-29.5 15q-15 8 -29 15t-28 7q-21 0 -33.5 -15.5t-17.5 -34.5h-36z" />
    <glyph glyph-name="Odieresis" unicode="&#xd6;" horiz-adv-x="500" 
d="M454 361q24 114 24 179q0 37 -6.5 61t-17.5 38.5t-26.5 20.5t-33.5 6q-26 0 -52 -13t-50.5 -47.5t-47 -93.5t-42.5 -151q-24 -114 -24 -179q0 -37 6.5 -61t17.5 -38.5t26.5 -20.5t33.5 -6q26 0 52 13t50.5 47.5t47 93.5t42.5 151zM532 361q-22 -101 -52 -171.5
t-66.5 -115t-78.5 -64.5t-88 -20q-68 0 -107 44.5t-39 146.5q0 37 5.5 81.5t17.5 98.5q22 101 52 171.5t66 115t78 64.5t88 20q68 0 107 -45t39 -148q0 -75 -22 -178zM471 872h66l-22 -102h-66zM339 872h66l-22 -102h-66z" />
    <glyph glyph-name="multiply" unicode="&#xd7;" horiz-adv-x="600" 
d="M404 260l166 -212l-58 -48l-166 213l-258 -213l-38 48l258 212l-166 212l58 48l166 -213l258 213l38 -48z" />
    <glyph glyph-name="Oslash" unicode="&#xd8;" horiz-adv-x="500" 
d="M461 627q-12 22 -29 30.5t-38 8.5q-26 0 -52 -13t-50.5 -47.5t-47 -93.5t-42.5 -151q-24 -110 -24 -173q0 -5 0.5 -10.5t0.5 -10.5h2zM192 100q11 -25 29 -34.5t41 -9.5q26 0 52 13t50.5 47.5t47 93.5t42.5 151q14 64 19 111t5 82v10h-2zM58 -120h-54l117 190
q-20 45 -20 113q0 71 23 178q22 101 52 171.5t66 115t78 64.5t88 20q62 0 97 -34l65 106h54l-91 -148q21 -45 21 -118q0 -74 -22 -177q-22 -101 -52 -171.5t-66.5 -115t-78.5 -64.5t-88 -20q-31 0 -55.5 9t-43.5 29z" />
    <glyph glyph-name="Ugrave" unicode="&#xd9;" horiz-adv-x="500" 
d="M300 722l-115 -530q-3 -14 -5 -27.5t-2 -26.5q0 -36 18 -59t66 -23q32 0 55 11t38.5 29.5t25.5 43.5t16 52l115 530h78l-115 -532q-9 -44 -27.5 -80.5t-47 -63t-66.5 -41.5t-87 -15q-78 0 -113 37.5t-35 98.5q0 15 2 31t6 33l115 532h78zM324 898h78l69 -138h-50z" />
    <glyph glyph-name="Uacute" unicode="&#xda;" horiz-adv-x="500" 
d="M300 722l-115 -530q-3 -14 -5 -27.5t-2 -26.5q0 -36 18 -59t66 -23q32 0 55 11t38.5 29.5t25.5 43.5t16 52l115 530h78l-115 -532q-9 -44 -27.5 -80.5t-47 -63t-66.5 -41.5t-87 -15q-78 0 -113 37.5t-35 98.5q0 15 2 31t6 33l115 532h78zM407 760h-50l127 138h78z" />
    <glyph glyph-name="Ucircumflex" unicode="&#xdb;" horiz-adv-x="500" 
d="M300 722l-115 -530q-3 -14 -5 -27.5t-2 -26.5q0 -36 18 -59t66 -23q32 0 55 11t38.5 29.5t25.5 43.5t16 52l115 530h78l-115 -532q-9 -44 -27.5 -80.5t-47 -63t-66.5 -41.5t-87 -15q-78 0 -113 37.5t-35 98.5q0 15 2 31t6 33l115 532h78zM409 898h68l72 -138h-64l-49 102
l-93 -102h-64z" />
    <glyph glyph-name="Udieresis" unicode="&#xdc;" horiz-adv-x="500" 
d="M300 722l-115 -530q-3 -14 -5 -27.5t-2 -26.5q0 -36 18 -59t66 -23q32 0 55 11t38.5 29.5t25.5 43.5t16 52l115 530h78l-115 -532q-9 -44 -27.5 -80.5t-47 -63t-66.5 -41.5t-87 -15q-78 0 -113 37.5t-35 98.5q0 15 2 31t6 33l115 532h78zM471 872h66l-22 -102h-66z
M339 872h66l-22 -102h-66z" />
    <glyph glyph-name="Yacute" unicode="&#xdd;" 
d="M256 722l55 -316l189 316h84l-256 -416l-66 -306h-78l66 306l-78 416h84zM379 760h-50l127 138h78z" />
    <glyph glyph-name="Thorn" unicode="&#xde;" 
d="M183 230h82q59 0 98.5 32t54.5 100q2 12 3.5 22.5t1.5 20.5q0 46 -26.5 67.5t-74.5 21.5h-82zM212 722h78l-35 -162h92q74 0 114.5 -39t40.5 -106q0 -25 -6 -53q-10 -45 -31.5 -81.5t-52.5 -62.5t-69.5 -40t-81.5 -14h-92l-35 -164h-78z" />
    <glyph glyph-name="germandbls" unicode="&#xdf;" 
d="M197 580q6 29 21.5 56.5t39 48.5t53.5 34t65 13q61 0 94 -34.5t33 -94.5q0 -25 -6 -53q-13 -59 -39 -92.5t-65 -53.5q12 -7 23.5 -16.5t20.5 -23.5t14 -33t5 -46q0 -35 -10 -79q-14 -63 -33.5 -104.5t-43.5 -66.5t-51.5 -35t-55.5 -10t-52 12l13 62q20 -14 46 -14
q15 0 29 6t27 22.5t25 44t21 71.5q12 55 12 91q0 45 -19.5 64t-62.5 19l13 60q41 3 68.5 29t42.5 94q3 14 4 25.5t1 21.5q0 42 -18.5 58t-44.5 16q-35 0 -62 -25.5t-36 -66.5l-125 -580h-72z" />
    <glyph glyph-name="agrave" unicode="&#xe0;" 
d="M353 280q-26 -8 -59 -20.5t-63.5 -31t-53.5 -43t-29 -55.5q-3 -15 -3 -27q0 -25 14 -39t45 -14q29 0 58 17t53 37zM143 378q12 31 30 58.5t41 48.5t52 33t64 12q60 0 91 -27.5t31 -77.5q0 -18 -5 -43l-63 -290q-9 -44 -9 -70q0 -16 3 -22h-75v44q-13 -11 -29 -20.5
t-33 -17t-33 -12t-28 -4.5q-52 0 -81 26.5t-29 73.5q0 18 4 34q10 48 42 84.5t74 63t88.5 43t87.5 25.5l8 37q3 16 3 30q0 30 -15 46.5t-43 16.5q-21 0 -38.5 -9.5t-31.5 -24t-24.5 -32.5t-17.5 -36zM257 716h78l69 -138h-50z" />
    <glyph glyph-name="aacute" unicode="&#xe1;" 
d="M353 280q-26 -8 -59 -20.5t-63.5 -31t-53.5 -43t-29 -55.5q-3 -15 -3 -27q0 -25 14 -39t45 -14q29 0 58 17t53 37zM143 378q12 31 30 58.5t41 48.5t52 33t64 12q60 0 91 -27.5t31 -77.5q0 -18 -5 -43l-63 -290q-9 -44 -9 -70q0 -16 3 -22h-75v44q-13 -11 -29 -20.5
t-33 -17t-33 -12t-28 -4.5q-52 0 -81 26.5t-29 73.5q0 18 4 34q10 48 42 84.5t74 63t88.5 43t87.5 25.5l8 37q3 16 3 30q0 30 -15 46.5t-43 16.5q-21 0 -38.5 -9.5t-31.5 -24t-24.5 -32.5t-17.5 -36zM340 578h-50l127 138h78z" />
    <glyph glyph-name="acircumflex" unicode="&#xe2;" 
d="M353 280q-26 -8 -59 -20.5t-63.5 -31t-53.5 -43t-29 -55.5q-3 -15 -3 -27q0 -25 14 -39t45 -14q29 0 58 17t53 37zM143 378q12 31 30 58.5t41 48.5t52 33t64 12q60 0 91 -27.5t31 -77.5q0 -18 -5 -43l-63 -290q-9 -44 -9 -70q0 -16 3 -22h-75v44q-13 -11 -29 -20.5
t-33 -17t-33 -12t-28 -4.5q-52 0 -81 26.5t-29 73.5q0 18 4 34q10 48 42 84.5t74 63t88.5 43t87.5 25.5l8 37q3 16 3 30q0 30 -15 46.5t-43 16.5q-21 0 -38.5 -9.5t-31.5 -24t-24.5 -32.5t-17.5 -36zM342 716h68l72 -138h-64l-49 102l-93 -102h-64z" />
    <glyph glyph-name="atilde" unicode="&#xe3;" 
d="M353 280q-26 -8 -59 -20.5t-63.5 -31t-53.5 -43t-29 -55.5q-3 -15 -3 -27q0 -25 14 -39t45 -14q29 0 58 17t53 37zM143 378q12 31 30 58.5t41 48.5t52 33t64 12q60 0 91 -27.5t31 -77.5q0 -18 -5 -43l-63 -290q-9 -44 -9 -70q0 -16 3 -22h-75v44q-13 -11 -29 -20.5
t-33 -17t-33 -12t-28 -4.5q-52 0 -81 26.5t-29 73.5q0 18 4 34q10 48 42 84.5t74 63t88.5 43t87.5 25.5l8 37q3 16 3 30q0 30 -15 46.5t-43 16.5q-21 0 -38.5 -9.5t-31.5 -24t-24.5 -32.5t-17.5 -36zM208 588q4 16 13 33.5t22 31.5t29 23.5t34 9.5q19 0 35.5 -7t30.5 -15
q15 -8 28.5 -15t26.5 -7q22 0 32.5 15.5t16.5 34.5h36q-5 -18 -13 -36t-20 -31.5t-28.5 -22t-37.5 -8.5q-16 0 -31.5 7t-29.5 15q-15 8 -29 15t-28 7q-21 0 -33.5 -15.5t-17.5 -34.5h-36z" />
    <glyph glyph-name="adieresis" unicode="&#xe4;" 
d="M353 280q-26 -8 -59 -20.5t-63.5 -31t-53.5 -43t-29 -55.5q-3 -15 -3 -27q0 -25 14 -39t45 -14q29 0 58 17t53 37zM143 378q12 31 30 58.5t41 48.5t52 33t64 12q60 0 91 -27.5t31 -77.5q0 -18 -5 -43l-63 -290q-9 -44 -9 -70q0 -16 3 -22h-75v44q-13 -11 -29 -20.5
t-33 -17t-33 -12t-28 -4.5q-52 0 -81 26.5t-29 73.5q0 18 4 34q10 48 42 84.5t74 63t88.5 43t87.5 25.5l8 37q3 16 3 30q0 30 -15 46.5t-43 16.5q-21 0 -38.5 -9.5t-31.5 -24t-24.5 -32.5t-17.5 -36zM404 690h66l-22 -102h-66zM272 690h66l-22 -102h-66z" />
    <glyph glyph-name="aring" unicode="&#xe5;" 
d="M353 280q-26 -8 -59 -20.5t-63.5 -31t-53.5 -43t-29 -55.5q-3 -15 -3 -27q0 -25 14 -39t45 -14q29 0 58 17t53 37zM143 378q12 31 30 58.5t41 48.5t52 33t64 12q60 0 91 -27.5t31 -77.5q0 -18 -5 -43l-63 -290q-9 -44 -9 -70q0 -16 3 -22h-75v44q-13 -11 -29 -20.5
t-33 -17t-33 -12t-28 -4.5q-52 0 -81 26.5t-29 73.5q0 18 4 34q10 48 42 84.5t74 63t88.5 43t87.5 25.5l8 37q3 16 3 30q0 30 -15 46.5t-43 16.5q-21 0 -38.5 -9.5t-31.5 -24t-24.5 -32.5t-17.5 -36zM314 673q-1 -3 -1 -10q0 -18 12 -30.5t31 -12.5q21 0 40 16t24 37
q1 3 1 10q0 18 -12 30.5t-30 12.5q-21 0 -40.5 -16t-24.5 -37zM272 673q4 19 15 36.5t27 30.5t35 20.5t39 7.5q35 0 55.5 -21.5t20.5 -53.5q0 -5 -0.5 -10t-1.5 -10q-4 -20 -15 -37t-26.5 -30t-34.5 -20.5t-39 -7.5q-35 0 -56 21.5t-21 53.5q0 5 0.5 10t1.5 10z" />
    <glyph glyph-name="ae" unicode="&#xe6;" horiz-adv-x="611" 
d="M569 308q11 55 11 88q0 38 -14.5 56t-48.5 18q-36 0 -69 -38t-53 -124h174zM317 280q-20 -8 -49 -20.5t-57.5 -31t-51.5 -43t-29 -55.5q-3 -15 -3 -27q0 -25 14 -39t45 -14q23 0 49.5 17t43.5 37zM382 248l-6 -29q-9 -42 -9 -72q0 -53 21.5 -75t47.5 -22q21 0 37.5 8.5
t30 22.5t23.5 31.5t18 35.5l66 -8q-11 -29 -29.5 -56t-43.5 -48t-54.5 -33.5t-61.5 -12.5q-42 0 -72 15t-42 56q-51 -45 -87.5 -58t-58.5 -13q-52 0 -81 26.5t-29 73.5q0 18 4 34q10 48 41.5 84.5t72 63t83.5 43t77 25.5l8 37q2 10 3 18.5t1 16.5q0 29 -13.5 43.5
t-37.5 14.5q-16 0 -31.5 -9.5t-29 -24t-24 -32.5t-17.5 -36l-64 10q12 31 30 58.5t41 48.5t52 33t63 12q40 0 62 -18.5t30 -45.5q31 33 63 48.5t64 15.5q62 0 90 -38t28 -106q0 -47 -12 -104l-8 -34h-246z" />
    <glyph glyph-name="ccedilla" unicode="&#xe7;" horiz-adv-x="389" 
d="M72 -156q11 -5 26.5 -9.5t35.5 -4.5q30 0 50.5 11.5t25.5 29.5q1 3 1 8q0 14 -11.5 24.5t-34.5 10.5q-12 0 -22.5 -3t-21.5 -7l-11 14l69 73q-53 3 -79 36t-26 100q0 53 17 133q30 141 82.5 205.5t134.5 64.5q64 0 91 -36t27 -99v-14t-1 -15h-70q1 8 1.5 16t0.5 15
q0 41 -16.5 57t-45.5 16q-23 0 -41 -8.5t-34 -32t-29.5 -64.5t-27.5 -105q-19 -89 -19 -137q0 -44 15.5 -58.5t44.5 -14.5q17 0 32 5t28 18t25 35t24 56h70q-23 -70 -64.5 -116.5t-101.5 -55.5l-50 -50l2 -2q10 6 32 6q27 0 46 -13.5t19 -40.5q0 -5 -0.5 -9t-1.5 -9
q-5 -21 -17 -37.5t-29.5 -28t-38 -18t-42.5 -6.5q-29 0 -49.5 3.5t-39.5 12.5z" />
    <glyph glyph-name="egrave" unicode="&#xe8;" horiz-adv-x="389" 
d="M347 308q11 55 11 88q0 38 -14.5 56t-48.5 18q-20 0 -37.5 -8t-32.5 -26.5t-28.5 -50t-23.5 -77.5h174zM160 248l-6 -29q-12 -56 -12 -90q0 -43 18 -61t54 -18q21 0 37.5 8.5t30 22.5t23.5 31.5t18 35.5l66 -8q-11 -29 -29.5 -56t-44 -48t-57 -33.5t-67.5 -12.5
q-60 0 -88.5 33t-28.5 104q0 53 17 133q30 141 82.5 205.5t134.5 64.5q62 0 90 -38t28 -106q0 -47 -12 -104l-8 -34h-246zM230 716h78l69 -138h-50z" />
    <glyph glyph-name="eacute" unicode="&#xe9;" horiz-adv-x="389" 
d="M347 308q11 55 11 88q0 38 -14.5 56t-48.5 18q-20 0 -37.5 -8t-32.5 -26.5t-28.5 -50t-23.5 -77.5h174zM160 248l-6 -29q-12 -56 -12 -90q0 -43 18 -61t54 -18q21 0 37.5 8.5t30 22.5t23.5 31.5t18 35.5l66 -8q-11 -29 -29.5 -56t-44 -48t-57 -33.5t-67.5 -12.5
q-60 0 -88.5 33t-28.5 104q0 53 17 133q30 141 82.5 205.5t134.5 64.5q62 0 90 -38t28 -106q0 -47 -12 -104l-8 -34h-246zM313 578h-50l127 138h78z" />
    <glyph glyph-name="ecircumflex" unicode="&#xea;" horiz-adv-x="389" 
d="M347 308q11 55 11 88q0 38 -14.5 56t-48.5 18q-20 0 -37.5 -8t-32.5 -26.5t-28.5 -50t-23.5 -77.5h174zM160 248l-6 -29q-12 -56 -12 -90q0 -43 18 -61t54 -18q21 0 37.5 8.5t30 22.5t23.5 31.5t18 35.5l66 -8q-11 -29 -29.5 -56t-44 -48t-57 -33.5t-67.5 -12.5
q-60 0 -88.5 33t-28.5 104q0 53 17 133q30 141 82.5 205.5t134.5 64.5q62 0 90 -38t28 -106q0 -47 -12 -104l-8 -34h-246zM315 716h68l72 -138h-64l-49 102l-93 -102h-64z" />
    <glyph glyph-name="edieresis" unicode="&#xeb;" horiz-adv-x="389" 
d="M347 308q11 55 11 88q0 38 -14.5 56t-48.5 18q-20 0 -37.5 -8t-32.5 -26.5t-28.5 -50t-23.5 -77.5h174zM160 248l-6 -29q-12 -56 -12 -90q0 -43 18 -61t54 -18q21 0 37.5 8.5t30 22.5t23.5 31.5t18 35.5l66 -8q-11 -29 -29.5 -56t-44 -48t-57 -33.5t-67.5 -12.5
q-60 0 -88.5 33t-28.5 104q0 53 17 133q30 141 82.5 205.5t134.5 64.5q62 0 90 -38t28 -106q0 -47 -12 -104l-8 -34h-246zM377 690h66l-22 -102h-66zM245 690h66l-22 -102h-66z" />
    <glyph glyph-name="igrave" unicode="&#xec;" horiz-adv-x="222" 
d="M187 520h72l-112 -520h-72zM146 716h78l69 -138h-50z" />
    <glyph glyph-name="iacute" unicode="&#xed;" horiz-adv-x="222" 
d="M187 520h72l-112 -520h-72zM229 578h-50l127 138h78z" />
    <glyph glyph-name="icircumflex" unicode="&#xee;" horiz-adv-x="222" 
d="M187 520h72l-112 -520h-72zM231 716h68l72 -138h-64l-49 102l-93 -102h-64z" />
    <glyph glyph-name="idieresis" unicode="&#xef;" horiz-adv-x="222" 
d="M187 520h72l-112 -520h-72zM293 690h66l-22 -102h-66zM161 690h66l-22 -102h-66z" />
    <glyph glyph-name="eth" unicode="&#xf0;" horiz-adv-x="389" 
d="M163 260q-19 -89 -19 -137q0 -44 15.5 -58.5t44.5 -14.5q23 0 41.5 8.5t34 32t29.5 64t28 105.5q19 88 19 135q0 45 -15.5 60t-45.5 15q-23 0 -41 -8.5t-34 -32t-29.5 -64.5t-27.5 -105zM354 722q10 -12 19 -25t16 -28l106 37l14 -46l-100 -35q13 -36 18.5 -76t5.5 -85
q0 -96 -24 -204q-31 -141 -83.5 -205.5t-134.5 -64.5q-60 0 -88.5 33t-28.5 104q0 53 17 133q30 141 82.5 205.5t134.5 64.5q15 0 28 -2t19 -7q-1 21 -5 41t-11 38l-98 -34l-14 46l92 32q-16 31 -36 56z" />
    <glyph glyph-name="ntilde" unicode="&#xf1;" 
d="M184 520h68l-12 -57q15 13 33 25t35.5 21.5t34 15t29.5 5.5q44 0 67.5 -20.5t23.5 -65.5q0 -22 -6 -50l-85 -394h-72l83 384q5 25 5 39q0 47 -44 47q-26 0 -54 -17t-59 -47l-87 -406h-72zM208 588q4 16 13 33.5t22 31.5t29 23.5t34 9.5q19 0 35.5 -7t30.5 -15
q15 -8 28.5 -15t26.5 -7q22 0 32.5 15.5t16.5 34.5h36q-5 -18 -13 -36t-20 -31.5t-28.5 -22t-37.5 -8.5q-16 0 -31.5 7t-29.5 15q-15 8 -29 15t-28 7q-21 0 -33.5 -15.5t-17.5 -34.5h-36z" />
    <glyph glyph-name="ograve" unicode="&#xf2;" horiz-adv-x="389" 
d="M163 260q-19 -89 -19 -137q0 -44 15.5 -58.5t44.5 -14.5q23 0 41.5 8.5t34 32t29.5 64t28 105.5q19 88 19 135q0 45 -15.5 60t-45.5 15q-23 0 -41 -8.5t-34 -32t-29.5 -64.5t-27.5 -105zM91 260q30 141 82.5 205.5t134.5 64.5q60 0 89 -33t29 -105q0 -52 -17 -132
q-31 -141 -83.5 -205.5t-134.5 -64.5q-60 0 -88.5 33t-28.5 104q0 53 17 133zM230 716h78l69 -138h-50z" />
    <glyph glyph-name="oacute" unicode="&#xf3;" horiz-adv-x="389" 
d="M163 260q-19 -89 -19 -137q0 -44 15.5 -58.5t44.5 -14.5q23 0 41.5 8.5t34 32t29.5 64t28 105.5q19 88 19 135q0 45 -15.5 60t-45.5 15q-23 0 -41 -8.5t-34 -32t-29.5 -64.5t-27.5 -105zM91 260q30 141 82.5 205.5t134.5 64.5q60 0 89 -33t29 -105q0 -52 -17 -132
q-31 -141 -83.5 -205.5t-134.5 -64.5q-60 0 -88.5 33t-28.5 104q0 53 17 133zM313 578h-50l127 138h78z" />
    <glyph glyph-name="ocircumflex" unicode="&#xf4;" horiz-adv-x="389" 
d="M163 260q-19 -89 -19 -137q0 -44 15.5 -58.5t44.5 -14.5q23 0 41.5 8.5t34 32t29.5 64t28 105.5q19 88 19 135q0 45 -15.5 60t-45.5 15q-23 0 -41 -8.5t-34 -32t-29.5 -64.5t-27.5 -105zM91 260q30 141 82.5 205.5t134.5 64.5q60 0 89 -33t29 -105q0 -52 -17 -132
q-31 -141 -83.5 -205.5t-134.5 -64.5q-60 0 -88.5 33t-28.5 104q0 53 17 133zM315 716h68l72 -138h-64l-49 102l-93 -102h-64z" />
    <glyph glyph-name="otilde" unicode="&#xf5;" horiz-adv-x="389" 
d="M163 260q-19 -89 -19 -137q0 -44 15.5 -58.5t44.5 -14.5q23 0 41.5 8.5t34 32t29.5 64t28 105.5q19 88 19 135q0 45 -15.5 60t-45.5 15q-23 0 -41 -8.5t-34 -32t-29.5 -64.5t-27.5 -105zM91 260q30 141 82.5 205.5t134.5 64.5q60 0 89 -33t29 -105q0 -52 -17 -132
q-31 -141 -83.5 -205.5t-134.5 -64.5q-60 0 -88.5 33t-28.5 104q0 53 17 133zM181 588q4 16 13 33.5t22 31.5t29 23.5t34 9.5q19 0 35.5 -7t30.5 -15q15 -8 28.5 -15t26.5 -7q22 0 32.5 15.5t16.5 34.5h36q-5 -18 -13 -36t-20 -31.5t-28.5 -22t-37.5 -8.5q-16 0 -31.5 7
t-29.5 15q-15 8 -29 15t-28 7q-21 0 -33.5 -15.5t-17.5 -34.5h-36z" />
    <glyph glyph-name="odieresis" unicode="&#xf6;" horiz-adv-x="389" 
d="M163 260q-19 -89 -19 -137q0 -44 15.5 -58.5t44.5 -14.5q23 0 41.5 8.5t34 32t29.5 64t28 105.5q19 88 19 135q0 45 -15.5 60t-45.5 15q-23 0 -41 -8.5t-34 -32t-29.5 -64.5t-27.5 -105zM91 260q30 141 82.5 205.5t134.5 64.5q60 0 89 -33t29 -105q0 -52 -17 -132
q-31 -141 -83.5 -205.5t-134.5 -64.5q-60 0 -88.5 33t-28.5 104q0 53 17 133zM377 690h66l-22 -102h-66zM245 690h66l-22 -102h-66z" />
    <glyph glyph-name="divide" unicode="&#xf7;" horiz-adv-x="600" 
d="M334 464q6 27 29.5 46.5t50.5 19.5q23 0 38.5 -14.5t15.5 -37.5q0 -4 -2 -14q-6 -27 -29.5 -46.5t-50.5 -19.5q-23 0 -38.5 14.5t-15.5 37.5q0 4 2 14zM246 56q5 27 29 46.5t51 19.5q24 0 38.5 -15t14.5 -38v-7q0 -3 -1 -6q-6 -27 -30 -46.5t-51 -19.5q-23 0 -38 15
t-15 37q0 4 0.5 7t1.5 7zM89 227l14 66h520l-14 -66h-520z" />
    <glyph glyph-name="oslash" unicode="&#xf8;" horiz-adv-x="389" 
d="M159 67q7 -10 18.5 -13.5t26.5 -3.5q23 0 41.5 8.5t34 32t29.5 64t28 105.5q9 43 13.5 75t6.5 54h-2zM343 451q-14 19 -48 19q-23 0 -41 -8.5t-34 -32t-29.5 -64.5t-27.5 -105q-20 -92 -21 -136h2zM409 476q16 -32 16 -86q0 -56 -16 -130q-31 -141 -83.5 -205.5
t-134.5 -64.5q-44 0 -68 18l-78 -128h-49l96 159q-18 33 -18 88q0 53 17 133q30 141 82.5 205.5t134.5 64.5q23 0 41 -4.5t31 -15.5l73 120h50z" />
    <glyph glyph-name="ugrave" unicode="&#xf9;" 
d="M372 0h-68l12 57q-16 -13 -34 -25t-35.5 -21.5t-34 -15t-29.5 -5.5q-44 0 -67 20t-23 65q0 22 6 51l85 394h72l-83 -384q-5 -25 -5 -40q0 -46 43 -46q26 0 54.5 17t58.5 47l88 406h72zM257 716h78l69 -138h-50z" />
    <glyph glyph-name="uacute" unicode="&#xfa;" 
d="M372 0h-68l12 57q-16 -13 -34 -25t-35.5 -21.5t-34 -15t-29.5 -5.5q-44 0 -67 20t-23 65q0 22 6 51l85 394h72l-83 -384q-5 -25 -5 -40q0 -46 43 -46q26 0 54.5 17t58.5 47l88 406h72zM340 578h-50l127 138h78z" />
    <glyph glyph-name="ucircumflex" unicode="&#xfb;" 
d="M372 0h-68l12 57q-16 -13 -34 -25t-35.5 -21.5t-34 -15t-29.5 -5.5q-44 0 -67 20t-23 65q0 22 6 51l85 394h72l-83 -384q-5 -25 -5 -40q0 -46 43 -46q26 0 54.5 17t58.5 47l88 406h72zM342 716h68l72 -138h-64l-49 102l-93 -102h-64z" />
    <glyph glyph-name="udieresis" unicode="&#xfc;" 
d="M372 0h-68l12 57q-16 -13 -34 -25t-35.5 -21.5t-34 -15t-29.5 -5.5q-44 0 -67 20t-23 65q0 22 6 51l85 394h72l-83 -384q-5 -25 -5 -40q0 -46 43 -46q26 0 54.5 17t58.5 47l88 406h72zM404 690h66l-22 -102h-66zM272 690h66l-22 -102h-66z" />
    <glyph glyph-name="yacute" unicode="&#xfd;" horiz-adv-x="333" 
d="M188 520l12 -398h2l166 398h74l-229 -509q-39 -86 -88 -133.5t-115 -47.5h-36l13 60h21q43 0 76.5 29.5t55.5 84.5l-26 516h74zM285 578h-50l127 138h78z" />
    <glyph glyph-name="thorn" unicode="&#xfe;" 
d="M170 96q13 -16 28.5 -31t39.5 -15q23 0 43 10.5t37.5 34.5t33 64.5t28.5 100.5q15 72 15 116q0 53 -18 73.5t-50 20.5q-17 0 -41 -13.5t-46 -36.5zM250 482h2q19 19 46 33.5t62 14.5q23 0 42.5 -8t34 -25.5t22.5 -45t8 -67.5q0 -26 -3.5 -56.5t-11.5 -67.5
q-17 -75 -40 -126.5t-50.5 -83.5t-57.5 -46t-61 -14q-29 0 -50 15t-35 33l-45 -208h-72l193 892h68z" />
    <glyph glyph-name="ydieresis" unicode="&#xff;" horiz-adv-x="333" 
d="M188 520l12 -398h2l166 398h74l-229 -509q-39 -86 -88 -133.5t-115 -47.5h-36l13 60h21q43 0 76.5 29.5t55.5 84.5l-26 516h74zM349 690h66l-22 -102h-66zM217 690h66l-22 -102h-66z" />
    <glyph glyph-name=".null" horiz-adv-x="0" 
 />
    <glyph glyph-name="Amacron" unicode="&#x100;" 
d="M201 280h162l4 388h-2zM432 722l3 -722h-78l3 214h-184l-89 -214h-78l315 722h108zM254 796l11 48h266l-11 -48h-266z" />
    <glyph glyph-name="amacron" unicode="&#x101;" 
d="M353 280q-26 -8 -59 -20.5t-63.5 -31t-53.5 -43t-29 -55.5q-3 -15 -3 -27q0 -25 14 -39t45 -14q29 0 58 17t53 37zM143 378q12 31 30 58.5t41 48.5t52 33t64 12q60 0 91 -27.5t31 -77.5q0 -18 -5 -43l-63 -290q-9 -44 -9 -70q0 -16 3 -22h-75v44q-13 -11 -29 -20.5
t-33 -17t-33 -12t-28 -4.5q-52 0 -81 26.5t-29 73.5q0 18 4 34q10 48 42 84.5t74 63t88.5 43t87.5 25.5l8 37q3 16 3 30q0 30 -15 46.5t-43 16.5q-21 0 -38.5 -9.5t-31.5 -24t-24.5 -32.5t-17.5 -36zM209 614l11 48h266l-11 -48h-266z" />
    <glyph glyph-name="Abreve" unicode="&#x102;" 
d="M201 280h162l4 388h-2zM432 722l3 -722h-78l3 214h-184l-89 -214h-78l315 722h108zM320 892q-1 -5 -1 -15q0 -34 21 -49.5t58 -15.5q42 0 65 21t39 59h38q-18 -61 -60 -94.5t-103 -33.5q-49 0 -73 28.5t-24 72.5q0 7 0.5 13.5t1.5 13.5h38z" />
    <glyph glyph-name="abreve" unicode="&#x103;" 
d="M353 280q-26 -8 -59 -20.5t-63.5 -31t-53.5 -43t-29 -55.5q-3 -15 -3 -27q0 -25 14 -39t45 -14q29 0 58 17t53 37zM143 378q12 31 30 58.5t41 48.5t52 33t64 12q60 0 91 -27.5t31 -77.5q0 -18 -5 -43l-63 -290q-9 -44 -9 -70q0 -16 3 -22h-75v44q-13 -11 -29 -20.5
t-33 -17t-33 -12t-28 -4.5q-52 0 -81 26.5t-29 73.5q0 18 4 34q10 48 42 84.5t74 63t88.5 43t87.5 25.5l8 37q3 16 3 30q0 30 -15 46.5t-43 16.5q-21 0 -38.5 -9.5t-31.5 -24t-24.5 -32.5t-17.5 -36zM273 710q-1 -5 -1 -15q0 -34 21 -49.5t58 -15.5q42 0 65 21t39 59h38
q-18 -61 -60 -94.5t-103 -33.5q-49 0 -73 28.5t-24 72.5q0 7 0.5 13.5t1.5 13.5h38z" />
    <glyph glyph-name="Aogonek" unicode="&#x104;" 
d="M432 722l3 -722h-31q-12 -4 -26 -10q-29 -11 -56.5 -26t-49 -34.5t-26.5 -44.5q-1 -5 -1.5 -9t-0.5 -8q0 -20 13 -28t36 -8q14 0 29.5 4t31 10.5t29.5 13.5t25 13l9 -32q-35 -21 -78 -38t-81 -17q-29 0 -50 15t-21 48q0 11 3 23q8 38 35.5 63.5t62.5 42.5q33 15 69 23
l3 213h-184l-89 -214h-78l315 722h108zM201 280h162l4 388h-2z" />
    <glyph glyph-name="aogonek" unicode="&#x105;" 
d="M143 378q12 31 30 58.5t41 48.5t52 33t64 12q60 0 91 -27.5t31 -77.5q0 -18 -5 -43l-63 -290q-9 -44 -9 -70q0 -16 3 -22h-15q-11 -5 -32 -13q-24 -10 -48.5 -26.5t-43 -39.5t-18.5 -54q0 -18 11.5 -26.5t31.5 -8.5q24 0 44 8t45 23l10 -32q-33 -21 -61 -33t-64 -12
q-32 0 -53 16t-21 48q0 31 15.5 56.5t38 44.5t47.5 32q24 11 42 17h-2v45q-15 -12 -31 -21.5t-33 -17t-33 -12t-28 -4.5q-52 0 -81 26.5t-29 73.5q0 18 4 34q10 48 42 84.5t74 63t88.5 43t87.5 25.5l8 37q3 16 3 30q0 30 -15 46.5t-43 16.5q-21 0 -38.5 -9.5t-31.5 -24
t-24.5 -32.5t-17.5 -36zM353 280q-26 -8 -59 -20.5t-63.5 -31t-53.5 -43t-29 -55.5q-3 -15 -3 -27q0 -25 14 -39t45 -14q29 0 58 17t53 37z" />
    <glyph glyph-name="Cacute" unicode="&#x106;" horiz-adv-x="500" 
d="M471 504q2 16 3 29.5t1 25.5q0 56 -19 81.5t-57 25.5q-34 0 -62.5 -16t-52.5 -52t-44 -94.5t-38 -142.5q-25 -113 -25 -183q0 -66 22.5 -94t67.5 -28q27 0 50.5 10t43 32t35 57t27.5 85h78q-27 -121 -91.5 -185.5t-157.5 -64.5q-71 0 -111 43.5t-40 145.5q0 37 5.5 82
t17.5 100q22 102 52 173t66.5 115t79.5 63.5t91 19.5q69 0 105 -40t36 -124q0 -15 -1.5 -31t-3.5 -33h-78zM404 760h-50l127 138h78z" />
    <glyph glyph-name="cacute" unicode="&#x107;" horiz-adv-x="389" 
d="M355 366q1 8 1.5 16t0.5 15q0 41 -16.5 57t-45.5 16q-23 0 -41 -8.5t-34 -32t-29.5 -64.5t-27.5 -105q-19 -89 -19 -137q0 -44 15.5 -58.5t44.5 -14.5q17 0 32 5t28 18t25 35t24 56h70q-13 -38 -31.5 -70t-42.5 -55t-53.5 -36t-64.5 -13q-60 0 -88.5 33t-28.5 104
q0 53 17 133q30 141 82.5 205.5t134.5 64.5q64 0 91 -36t27 -99v-14t-1 -15h-70zM312 578h-50l127 138h78z" />
    <glyph glyph-name="Ccircumflex" unicode="&#x108;" horiz-adv-x="500" 
d="M471 504q2 16 3 29.5t1 25.5q0 56 -19 81.5t-57 25.5q-34 0 -62.5 -16t-52.5 -52t-44 -94.5t-38 -142.5q-25 -113 -25 -183q0 -66 22.5 -94t67.5 -28q27 0 50.5 10t43 32t35 57t27.5 85h78q-27 -121 -91.5 -185.5t-157.5 -64.5q-71 0 -111 43.5t-40 145.5q0 37 5.5 82
t17.5 100q22 102 52 173t66.5 115t79.5 63.5t91 19.5q69 0 105 -40t36 -124q0 -15 -1.5 -31t-3.5 -33h-78zM403 898h68l72 -138h-64l-49 102l-93 -102h-64z" />
    <glyph glyph-name="ccircumflex" unicode="&#x109;" horiz-adv-x="389" 
d="M355 366q1 8 1.5 16t0.5 15q0 41 -16.5 57t-45.5 16q-23 0 -41 -8.5t-34 -32t-29.5 -64.5t-27.5 -105q-19 -89 -19 -137q0 -44 15.5 -58.5t44.5 -14.5q17 0 32 5t28 18t25 35t24 56h70q-13 -38 -31.5 -70t-42.5 -55t-53.5 -36t-64.5 -13q-60 0 -88.5 33t-28.5 104
q0 53 17 133q30 141 82.5 205.5t134.5 64.5q64 0 91 -36t27 -99v-14t-1 -15h-70zM310 716h68l72 -138h-64l-49 102l-93 -102h-64z" />
    <glyph glyph-name="Cdotaccent" unicode="&#x10a;" horiz-adv-x="500" 
d="M471 504q2 16 3 29.5t1 25.5q0 56 -19 81.5t-57 25.5q-34 0 -62.5 -16t-52.5 -52t-44 -94.5t-38 -142.5q-25 -113 -25 -183q0 -66 22.5 -94t67.5 -28q27 0 50.5 10t43 32t35 57t27.5 85h78q-27 -121 -91.5 -185.5t-157.5 -64.5q-71 0 -111 43.5t-40 145.5q0 37 5.5 82
t17.5 100q22 102 52 173t66.5 115t79.5 63.5t91 19.5q69 0 105 -40t36 -124q0 -15 -1.5 -31t-3.5 -33h-78zM401 872h66l-22 -102h-66z" />
    <glyph glyph-name="cdotaccent" unicode="&#x10b;" horiz-adv-x="389" 
d="M355 366q1 8 1.5 16t0.5 15q0 41 -16.5 57t-45.5 16q-23 0 -41 -8.5t-34 -32t-29.5 -64.5t-27.5 -105q-19 -89 -19 -137q0 -44 15.5 -58.5t44.5 -14.5q17 0 32 5t28 18t25 35t24 56h70q-13 -38 -31.5 -70t-42.5 -55t-53.5 -36t-64.5 -13q-60 0 -88.5 33t-28.5 104
q0 53 17 133q30 141 82.5 205.5t134.5 64.5q64 0 91 -36t27 -99v-14t-1 -15h-70zM305 690h66l-22 -102h-66z" />
    <glyph glyph-name="Ccaron" unicode="&#x10c;" horiz-adv-x="500" 
d="M471 504q2 16 3 29.5t1 25.5q0 56 -19 81.5t-57 25.5q-34 0 -62.5 -16t-52.5 -52t-44 -94.5t-38 -142.5q-25 -113 -25 -183q0 -66 22.5 -94t67.5 -28q27 0 50.5 10t43 32t35 57t27.5 85h78q-27 -121 -91.5 -185.5t-157.5 -64.5q-71 0 -111 43.5t-40 145.5q0 37 5.5 82
t17.5 100q22 102 52 173t66.5 115t79.5 63.5t91 19.5q69 0 105 -40t36 -124q0 -15 -1.5 -31t-3.5 -33h-78zM305 898h64l49 -102l93 102h64l-130 -138h-68z" />
    <glyph glyph-name="ccaron" unicode="&#x10d;" horiz-adv-x="389" 
d="M355 366q1 8 1.5 16t0.5 15q0 41 -16.5 57t-45.5 16q-23 0 -41 -8.5t-34 -32t-29.5 -64.5t-27.5 -105q-19 -89 -19 -137q0 -44 15.5 -58.5t44.5 -14.5q17 0 32 5t28 18t25 35t24 56h70q-13 -38 -31.5 -70t-42.5 -55t-53.5 -36t-64.5 -13q-60 0 -88.5 33t-28.5 104
q0 53 17 133q30 141 82.5 205.5t134.5 64.5q64 0 91 -36t27 -99v-14t-1 -15h-70zM206 716h64l49 -102l93 102h64l-130 -138h-68z" />
    <glyph glyph-name="Dcaron" unicode="&#x10e;" horiz-adv-x="500" 
d="M158 66h42q43 0 78.5 11.5t65.5 43.5t55 89.5t45 150.5q11 48 15.5 86t4.5 68q0 43 -9.5 70t-27.5 43t-43.5 22t-56.5 6h-42zM222 722h77h57q43 0 78 -10t59 -33t37 -60.5t13 -92.5q0 -68 -21 -165q-23 -104 -54.5 -173.5t-72 -111t-89.5 -59t-106 -17.5h-56h-78z
M269 898h64l49 -102l93 102h64l-130 -138h-68z" />
    <glyph glyph-name="dcaron" unicode="&#x10f;" 
d="M385 424q-12 16 -28 31t-40 15q-23 0 -43 -10.5t-37.5 -34.5t-32.5 -64.5t-28 -100.5q-16 -71 -16 -117q0 -52 18 -72.5t50 -20.5q17 0 41.5 13.5t45.5 36.5zM317 50h-2q-25 -28 -55 -44t-65 -16q-23 0 -43 7.5t-34 25t-22 45t-8 66.5q0 53 16 126q16 75 39 126.5
t50.5 83.5t57.5 46t61 14q29 0 50.5 -15t35.5 -33l52 240h72l-126 -582q-10 -45 -14 -75t-4 -52v-13h-68zM633 722l-16 -73l-60 -89h-27l52 89h-36l16 73h71z" />
    <glyph glyph-name="Dcroat" unicode="&#x110;" horiz-adv-x="500" 
d="M352 410l-14 -66h-120l-60 -278h42q43 0 78.5 11.5t65.5 43.5t55 89.5t45 150.5q11 48 15.5 86t4.5 68q0 43 -9.5 70t-27.5 43t-43.5 22t-56.5 6h-42l-53 -246h120zM154 410l68 312h76h58q43 0 78 -10t59 -33t37 -60.5t13 -92.5q0 -68 -21 -165q-23 -104 -54.5 -173.5
t-72 -111t-89.5 -59t-106 -17.5h-57h-77l74 344h-54l14 66h54z" />
    <glyph glyph-name="dcroat" unicode="&#x111;" 
d="M317 50h-2q-25 -28 -55 -44t-65 -16q-23 0 -43 7.5t-34 25t-22 45t-8 66.5q0 53 16 126q16 75 39 126.5t50.5 83.5t57.5 46t61 14q29 0 50.5 -15t35.5 -33l23 108h-122l12 56h122l17 76h72l-17 -76h53l-12 -56h-53l-97 -450q-10 -45 -14 -75t-4 -52v-13h-68zM385 424
q-12 16 -28 31t-40 15q-23 0 -43 -10.5t-37.5 -34.5t-32.5 -64.5t-28 -100.5q-16 -71 -16 -117q0 -52 18 -72.5t50 -20.5q17 0 41.5 13.5t45.5 36.5z" />
    <glyph glyph-name="Emacron" unicode="&#x112;" 
d="M552 722l-15 -66h-252l-53 -246h186l-14 -66h-186l-60 -278h264l-14 -66h-265h-77l156 722h77h253zM260 796l11 48h266l-11 -48h-266z" />
    <glyph glyph-name="emacron" unicode="&#x113;" horiz-adv-x="389" 
d="M347 308q11 55 11 88q0 38 -14.5 56t-48.5 18q-20 0 -37.5 -8t-32.5 -26.5t-28.5 -50t-23.5 -77.5h174zM160 248l-6 -29q-12 -56 -12 -90q0 -43 18 -61t54 -18q21 0 37.5 8.5t30 22.5t23.5 31.5t18 35.5l66 -8q-11 -29 -29.5 -56t-44 -48t-57 -33.5t-67.5 -12.5
q-60 0 -88.5 33t-28.5 104q0 53 17 133q30 141 82.5 205.5t134.5 64.5q62 0 90 -38t28 -106q0 -47 -12 -104l-8 -34h-246zM185 614l11 48h266l-11 -48h-266z" />
    <glyph glyph-name="Ebreve" unicode="&#x114;" 
d="M552 722l-15 -66h-252l-53 -246h186l-14 -66h-186l-60 -278h264l-14 -66h-265h-77l156 722h77h253zM324 892q-1 -5 -1 -15q0 -34 21 -49.5t58 -15.5q42 0 65 21t39 59h38q-18 -61 -60 -94.5t-103 -33.5q-49 0 -73 28.5t-24 72.5q0 7 0.5 13.5t1.5 13.5h38z" />
    <glyph glyph-name="ebreve" unicode="&#x115;" horiz-adv-x="389" 
d="M347 308q11 55 11 88q0 38 -14.5 56t-48.5 18q-20 0 -37.5 -8t-32.5 -26.5t-28.5 -50t-23.5 -77.5h174zM160 248l-6 -29q-12 -56 -12 -90q0 -43 18 -61t54 -18q21 0 37.5 8.5t30 22.5t23.5 31.5t18 35.5l66 -8q-11 -29 -29.5 -56t-44 -48t-57 -33.5t-67.5 -12.5
q-60 0 -88.5 33t-28.5 104q0 53 17 133q30 141 82.5 205.5t134.5 64.5q62 0 90 -38t28 -106q0 -47 -12 -104l-8 -34h-246zM250 710q-1 -5 -1 -15q0 -34 21 -49.5t58 -15.5q42 0 65 21t39 59h38q-18 -61 -60 -94.5t-103 -33.5q-49 0 -73 28.5t-24 72.5q0 7 0.5 13.5t1.5 13.5
h38z" />
    <glyph glyph-name="Edotaccent" unicode="&#x116;" 
d="M552 722l-15 -66h-252l-53 -246h186l-14 -66h-186l-60 -278h264l-14 -66h-265h-77l156 722h77h253zM380 872h66l-22 -102h-66z" />
    <glyph glyph-name="edotaccent" unicode="&#x117;" horiz-adv-x="389" 
d="M347 308q11 55 11 88q0 38 -14.5 56t-48.5 18q-20 0 -37.5 -8t-32.5 -26.5t-28.5 -50t-23.5 -77.5h174zM160 248l-6 -29q-12 -56 -12 -90q0 -43 18 -61t54 -18q21 0 37.5 8.5t30 22.5t23.5 31.5t18 35.5l66 -8q-11 -29 -29.5 -56t-44 -48t-57 -33.5t-67.5 -12.5
q-60 0 -88.5 33t-28.5 104q0 53 17 133q30 141 82.5 205.5t134.5 64.5q62 0 90 -38t28 -106q0 -47 -12 -104l-8 -34h-246zM305 690h66l-22 -102h-66z" />
    <glyph glyph-name="Eogonek" unicode="&#x118;" 
d="M552 722l-15 -66h-252l-53 -246h186l-14 -66h-186l-60 -278h264l-14 -66h-36q-12 -4 -26 -10q-29 -11 -56.5 -26t-49 -34.5t-26.5 -44.5q-1 -5 -1.5 -9t-0.5 -8q0 -20 13 -28t36 -8q14 0 29.5 4t31 10.5t29.5 13.5t25 13l9 -32q-35 -21 -78 -38t-81 -17q-29 0 -50 15
t-21 48q0 11 3 23q8 38 35.5 63.5t62.5 42.5q30 14 62 22h-180h-72l156 722h72h258z" />
    <glyph glyph-name="eogonek" unicode="&#x119;" horiz-adv-x="389" 
d="M160 248l-6 -29q-12 -56 -12 -90q0 -43 18 -61t54 -18q21 0 37.5 8.5t30 22.5t23.5 31.5t18 35.5l66 -8q-11 -29 -29.5 -56t-44.5 -48q-23 -19 -51 -32l-17 -11q-14 -9 -31.5 -21.5t-33.5 -29t-26.5 -35.5t-10.5 -40q0 -18 11.5 -26.5t31.5 -8.5q24 0 44 8t45 23l10 -32
q-33 -21 -61 -33t-64 -12q-32 0 -53 16t-21 48q0 25 9 46t23.5 38t32.5 31q17 13 35 25q-58 1 -86 33q-28 33 -28 104q0 53 17 133q30 141 82.5 205.5t134.5 64.5q62 0 90 -38t28 -106q0 -47 -12 -104l-8 -34h-246zM347 308q11 55 11 88q0 38 -14.5 56t-48.5 18
q-20 0 -37.5 -8t-32.5 -26.5t-28.5 -50t-23.5 -77.5h174z" />
    <glyph glyph-name="Ecaron" unicode="&#x11a;" 
d="M552 722l-15 -66h-252l-53 -246h186l-14 -66h-186l-60 -278h264l-14 -66h-265h-77l156 722h77h253zM282 898h64l49 -102l93 102h64l-130 -138h-68z" />
    <glyph glyph-name="ecaron" unicode="&#x11b;" horiz-adv-x="389" 
d="M347 308q11 55 11 88q0 38 -14.5 56t-48.5 18q-20 0 -37.5 -8t-32.5 -26.5t-28.5 -50t-23.5 -77.5h174zM160 248l-6 -29q-12 -56 -12 -90q0 -43 18 -61t54 -18q21 0 37.5 8.5t30 22.5t23.5 31.5t18 35.5l66 -8q-11 -29 -29.5 -56t-44 -48t-57 -33.5t-67.5 -12.5
q-60 0 -88.5 33t-28.5 104q0 53 17 133q30 141 82.5 205.5t134.5 64.5q62 0 90 -38t28 -106q0 -47 -12 -104l-8 -34h-246zM207 716h64l49 -102l93 102h64l-130 -138h-68z" />
    <glyph glyph-name="Gcircumflex" unicode="&#x11c;" horiz-adv-x="500" 
d="M474 500q2 16 3.5 31t1.5 29q0 48 -18 77t-64 29q-33 0 -60.5 -15.5t-51.5 -51.5t-44.5 -94.5t-38.5 -143.5q-25 -113 -25 -183q0 -66 22.5 -94t65.5 -28q55 0 90 29t47 85l22 102h-98l15 66h98h78l-73 -338h-50l1 54q-29 -30 -64.5 -47t-80.5 -17q-70 0 -109.5 43
t-39.5 145q0 37 5.5 82.5t17.5 100.5q22 102 52 173t66 115t78.5 63.5t90.5 19.5q41 0 69 -14t45 -37.5t24 -55t7 -66.5q0 -14 -1 -29t-3 -30h-78zM404 898h68l72 -138h-64l-49 102l-93 -102h-64z" />
    <glyph glyph-name="gcircumflex" unicode="&#x11d;" 
d="M326 -42q1 3 1 8q0 15 -13.5 25t-34 16.5t-44.5 11t-45 9.5q-35 -14 -58 -31.5t-28 -39.5q-1 -4 -1.5 -7t-0.5 -7q0 -26 24 -42.5t76 -16.5q60 0 88.5 21t35.5 53zM214 345q-7 -34 -7 -60q0 -40 15.5 -55.5t39.5 -15.5q16 0 31 6.5t28.5 22t25 40.5t19.5 62q8 38 8 61
q0 38 -15.5 54t-39.5 16q-32 0 -60.5 -28.5t-44.5 -102.5zM508 464q-6 2 -11 2h-10q-14 0 -25.5 -5.5t-23.5 -14.5q1 -9 1.5 -17.5t0.5 -16.5q0 -14 -1.5 -30t-6.5 -36q-11 -49 -29 -84t-41.5 -57.5t-51.5 -33.5t-58 -11q-12 0 -23.5 2t-23.5 2q-10 -2 -25 -10.5t-18 -23.5
q0 -2 -0.5 -3.5t-0.5 -3.5q0 -12 9.5 -18.5t25.5 -11t36.5 -8t43.5 -8.5q24 -5 45 -12t37.5 -18t26 -27t9.5 -39q0 -13 -3 -29q-6 -26 -22.5 -48t-43 -38.5t-61 -26t-75.5 -9.5q-79 0 -118 24t-39 66q0 10 3 22q8 35 34 62t64 42q-18 6 -30 20.5t-12 34.5q0 5 2 15
q6 29 31 46.5t52 22.5q-19 15 -27 42t-8 57q0 13 1 25.5t4 24.5q20 94 72 145t121 51q26 0 51.5 -11.5t33.5 -36.5q17 21 41 34.5t57 13.5zM334 716h68l72 -138h-64l-49 102l-93 -102h-64z" />
    <glyph glyph-name="Gbreve" unicode="&#x11e;" horiz-adv-x="500" 
d="M474 500q2 16 3.5 31t1.5 29q0 48 -18 77t-64 29q-33 0 -60.5 -15.5t-51.5 -51.5t-44.5 -94.5t-38.5 -143.5q-25 -113 -25 -183q0 -66 22.5 -94t65.5 -28q55 0 90 29t47 85l22 102h-98l15 66h98h78l-73 -338h-50l1 54q-29 -30 -64.5 -47t-80.5 -17q-70 0 -109.5 43
t-39.5 145q0 37 5.5 82.5t17.5 100.5q22 102 52 173t66 115t78.5 63.5t90.5 19.5q41 0 69 -14t45 -37.5t24 -55t7 -66.5q0 -14 -1 -29t-3 -30h-78zM345 892q-1 -5 -1 -15q0 -34 21 -49.5t58 -15.5q42 0 65 21t39 59h38q-18 -61 -60 -94.5t-103 -33.5q-49 0 -73 28.5
t-24 72.5q0 7 0.5 13.5t1.5 13.5h38z" />
    <glyph glyph-name="gbreve" unicode="&#x11f;" 
d="M326 -42q1 3 1 8q0 15 -13.5 25t-34 16.5t-44.5 11t-45 9.5q-35 -14 -58 -31.5t-28 -39.5q-1 -4 -1.5 -7t-0.5 -7q0 -26 24 -42.5t76 -16.5q60 0 88.5 21t35.5 53zM214 345q-7 -34 -7 -60q0 -40 15.5 -55.5t39.5 -15.5q16 0 31 6.5t28.5 22t25 40.5t19.5 62q8 38 8 61
q0 38 -15.5 54t-39.5 16q-32 0 -60.5 -28.5t-44.5 -102.5zM508 464q-6 2 -11 2h-10q-14 0 -25.5 -5.5t-23.5 -14.5q1 -9 1.5 -17.5t0.5 -16.5q0 -14 -1.5 -30t-6.5 -36q-11 -49 -29 -84t-41.5 -57.5t-51.5 -33.5t-58 -11q-12 0 -23.5 2t-23.5 2q-10 -2 -25 -10.5t-18 -23.5
q0 -2 -0.5 -3.5t-0.5 -3.5q0 -12 9.5 -18.5t25.5 -11t36.5 -8t43.5 -8.5q24 -5 45 -12t37.5 -18t26 -27t9.5 -39q0 -13 -3 -29q-6 -26 -22.5 -48t-43 -38.5t-61 -26t-75.5 -9.5q-79 0 -118 24t-39 66q0 10 3 22q8 35 34 62t64 42q-18 6 -30 20.5t-12 34.5q0 5 2 15
q6 29 31 46.5t52 22.5q-19 15 -27 42t-8 57q0 13 1 25.5t4 24.5q20 94 72 145t121 51q26 0 51.5 -11.5t33.5 -36.5q17 21 41 34.5t57 13.5zM277 710q-1 -5 -1 -15q0 -34 21 -49.5t58 -15.5q42 0 65 21t39 59h38q-18 -61 -60 -94.5t-103 -33.5q-49 0 -73 28.5t-24 72.5
q0 7 0.5 13.5t1.5 13.5h38z" />
    <glyph glyph-name="Gdotaccent" unicode="&#x120;" horiz-adv-x="500" 
d="M474 500q2 16 3.5 31t1.5 29q0 48 -18 77t-64 29q-33 0 -60.5 -15.5t-51.5 -51.5t-44.5 -94.5t-38.5 -143.5q-25 -113 -25 -183q0 -66 22.5 -94t65.5 -28q55 0 90 29t47 85l22 102h-98l15 66h98h78l-73 -338h-50l1 54q-29 -30 -64.5 -47t-80.5 -17q-70 0 -109.5 43
t-39.5 145q0 37 5.5 82.5t17.5 100.5q22 102 52 173t66 115t78.5 63.5t90.5 19.5q41 0 69 -14t45 -37.5t24 -55t7 -66.5q0 -14 -1 -29t-3 -30h-78zM401 872h66l-22 -102h-66z" />
    <glyph glyph-name="gdotaccent" unicode="&#x121;" 
d="M326 -42q1 3 1 8q0 15 -13.5 25t-34 16.5t-44.5 11t-45 9.5q-35 -14 -58 -31.5t-28 -39.5q-1 -4 -1.5 -7t-0.5 -7q0 -26 24 -42.5t76 -16.5q60 0 88.5 21t35.5 53zM214 345q-7 -34 -7 -60q0 -40 15.5 -55.5t39.5 -15.5q16 0 31 6.5t28.5 22t25 40.5t19.5 62q8 38 8 61
q0 38 -15.5 54t-39.5 16q-32 0 -60.5 -28.5t-44.5 -102.5zM508 464q-6 2 -11 2h-10q-14 0 -25.5 -5.5t-23.5 -14.5q1 -9 1.5 -17.5t0.5 -16.5q0 -14 -1.5 -30t-6.5 -36q-11 -49 -29 -84t-41.5 -57.5t-51.5 -33.5t-58 -11q-12 0 -23.5 2t-23.5 2q-10 -2 -25 -10.5t-18 -23.5
q0 -2 -0.5 -3.5t-0.5 -3.5q0 -12 9.5 -18.5t25.5 -11t36.5 -8t43.5 -8.5q24 -5 45 -12t37.5 -18t26 -27t9.5 -39q0 -13 -3 -29q-6 -26 -22.5 -48t-43 -38.5t-61 -26t-75.5 -9.5q-79 0 -118 24t-39 66q0 10 3 22q8 35 34 62t64 42q-18 6 -30 20.5t-12 34.5q0 5 2 15
q6 29 31 46.5t52 22.5q-19 15 -27 42t-8 57q0 13 1 25.5t4 24.5q20 94 72 145t121 51q26 0 51.5 -11.5t33.5 -36.5q17 21 41 34.5t57 13.5zM333 690h66l-22 -102h-66z" />
    <glyph glyph-name="Gcommaaccent" unicode="&#x122;" horiz-adv-x="500" 
d="M474 500q2 16 3.5 31t1.5 29q0 48 -18 77t-64 29q-33 0 -60.5 -15.5t-51.5 -51.5t-44.5 -94.5t-38.5 -143.5q-25 -113 -25 -183q0 -66 22.5 -94t65.5 -28q55 0 90 29t47 85l22 102h-98l15 66h98h78l-73 -338h-50l1 54q-29 -30 -64.5 -47t-80.5 -17q-70 0 -109.5 43
t-39.5 145q0 37 5.5 82.5t17.5 100.5q22 102 52 173t66 115t78.5 63.5t90.5 19.5q41 0 69 -14t45 -37.5t24 -55t7 -66.5q0 -14 -1 -29t-3 -30h-78zM289 -46l-17 -77l-63 -93h-28l55 93h-37l17 77h73z" />
    <glyph glyph-name="gcommaaccent" unicode="&#x123;" 
d="M326 -42q1 3 1 8q0 15 -13.5 25t-34 16.5t-44.5 11t-45 9.5q-35 -14 -58 -31.5t-28 -39.5q-1 -4 -1.5 -7t-0.5 -7q0 -26 24 -42.5t76 -16.5q60 0 88.5 21t35.5 53zM214 345q-7 -34 -7 -60q0 -40 15.5 -55.5t39.5 -15.5q16 0 31 6.5t28.5 22t25 40.5t19.5 62q8 38 8 61
q0 38 -15.5 54t-39.5 16q-32 0 -60.5 -28.5t-44.5 -102.5zM508 464q-6 2 -11 2h-10q-14 0 -25.5 -5.5t-23.5 -14.5q1 -9 1.5 -17.5t0.5 -16.5q0 -14 -1.5 -30t-6.5 -36q-11 -49 -29 -84t-41.5 -57.5t-51.5 -33.5t-58 -11q-12 0 -23.5 2t-23.5 2q-10 -2 -25 -10.5t-18 -23.5
q0 -2 -0.5 -3.5t-0.5 -3.5q0 -12 9.5 -18.5t25.5 -11t36.5 -8t43.5 -8.5q24 -5 45 -12t37.5 -18t26 -27t9.5 -39q0 -13 -3 -29q-6 -26 -22.5 -48t-43 -38.5t-61 -26t-75.5 -9.5q-79 0 -118 24t-39 66q0 10 3 22q8 35 34 62t64 42q-18 6 -30 20.5t-12 34.5q0 5 2 15
q6 29 31 46.5t52 22.5q-19 15 -27 42t-8 57q0 13 1 25.5t4 24.5q20 94 72 145t121 51q26 0 51.5 -11.5t33.5 -36.5q17 21 41 34.5t57 13.5zM306 578l13 64l54 74h24l-46 -74h32l-13 -64h-64z" />
    <glyph glyph-name="Hcircumflex" unicode="&#x124;" horiz-adv-x="500" 
d="M300 722l-68 -312h212l68 312h78l-156 -722h-78l74 344h-212l-74 -344h-78l156 722h78zM404 898h68l72 -138h-64l-49 102l-93 -102h-64z" />
    <glyph glyph-name="hcircumflex" unicode="&#x125;" 
d="M228 722h72l-56 -259q14 13 31 25t34 21.5t33.5 15t29.5 5.5q44 0 67.5 -20.5t23.5 -65.5q0 -22 -6 -50l-85 -394h-72l83 384q5 25 5 39q0 47 -44 47q-26 0 -54 -17t-59 -47l-87 -406h-72zM371 898h68l72 -138h-64l-49 102l-93 -102h-64z" />
    <glyph glyph-name="Hbar" unicode="&#x126;" horiz-adv-x="500" 
d="M300 722l-36 -163h212l36 163h78l-156 -722h-78l64 304h-212l-64 -304h-78l156 722h78zM222 367h212l31 136h-212z" />
    <glyph glyph-name="hbar" unicode="&#x127;" 
d="M228 722h72l-17 -76h126l-12 -56h-126l-27 -127q14 13 31 25t34 21.5t33.5 15t29.5 5.5q44 0 67.5 -20.5t23.5 -65.5q0 -22 -6 -50l-85 -394h-72l83 384q5 25 5 39q0 47 -44 47q-26 0 -54 -17t-59 -47l-87 -406h-72l127 590h-51l12 56h51z" />
    <glyph glyph-name="Itilde" unicode="&#x128;" horiz-adv-x="222" 
d="M306 722l-156 -722h-78l156 722h78zM137 770q4 16 13 33.5t22 31.5t29 23.5t34 9.5q19 0 35.5 -7t30.5 -15q15 -8 28.5 -15t26.5 -7q22 0 32.5 15.5t16.5 34.5h36q-5 -18 -13 -36t-20 -31.5t-28.5 -22t-37.5 -8.5q-16 0 -31.5 7t-29.5 15q-15 8 -29 15t-28 7
q-21 0 -33.5 -15.5t-17.5 -34.5h-36z" />
    <glyph glyph-name="itilde" unicode="&#x129;" horiz-adv-x="222" 
d="M187 520h72l-112 -520h-72zM93 588q4 16 13 33.5t22 31.5t29 23.5t34 9.5q19 0 35.5 -7t30.5 -15q15 -8 28.5 -15t26.5 -7q22 0 32.5 15.5t16.5 34.5h36q-5 -18 -13 -36t-20 -31.5t-28.5 -22t-37.5 -8.5q-16 0 -31.5 7t-29.5 15q-15 8 -29 15t-28 7q-21 0 -33.5 -15.5
t-17.5 -34.5h-36z" />
    <glyph glyph-name="Imacron" unicode="&#x12a;" horiz-adv-x="222" 
d="M306 722l-156 -722h-78l156 722h78zM143 796l11 48h266l-11 -48h-266z" />
    <glyph glyph-name="imacron" unicode="&#x12b;" horiz-adv-x="222" 
d="M187 520h72l-112 -520h-72zM108 614l11 48h266l-11 -48h-266z" />
    <glyph glyph-name="Iogonek" unicode="&#x12e;" horiz-adv-x="222" 
d="M306 722l-156 -722h-13q-8 -4 -13.5 -7.5t-10.5 -6.5q-11 -6 -26 -17t-29.5 -26.5t-24.5 -35t-10 -40.5q0 -35 43 -35q25 0 44 8t47 24l9 -32q-35 -22 -62 -34t-64 -12q-32 0 -52.5 15.5t-20.5 47.5q0 30 12 54t31 42.5t40.5 32t41.5 22.5h-20l156 722h78z" />
    <glyph glyph-name="iogonek" unicode="&#x12f;" horiz-adv-x="222" 
d="M187 520h72l-112 -520h-10q-8 -4 -13.5 -7.5t-10.5 -6.5q-11 -6 -26 -17t-29.5 -26.5t-24.5 -35t-10 -40.5q0 -35 43 -35q25 0 44 8t47 24l9 -32q-35 -22 -62 -34t-64 -12q-32 0 -52.5 15.5t-20.5 47.5q0 30 12 54t31 42.5t40.5 32t41.5 22.5h-17zM231 722h72l-18 -84
h-72z" />
    <glyph glyph-name="Idotaccent" unicode="&#x130;" horiz-adv-x="222" 
d="M306 722l-156 -722h-78l156 722h78zM266 872h66l-22 -102h-66z" />
    <glyph glyph-name="dotlessi" unicode="&#x131;" horiz-adv-x="222" 
d="M187 520h72l-112 -520h-72z" />
    <glyph glyph-name="Jcircumflex" unicode="&#x134;" horiz-adv-x="278" 
d="M368 722l-118 -542q-12 -56 -29.5 -92.5t-44 -58t-62 -30.5t-83.5 -9q-8 0 -17.5 2t-19.5 4l19 68q21 -8 44 -8q47 0 72.5 23.5t39.5 82.5l121 560h78zM323 898h68l72 -138h-64l-49 102l-93 -102h-64z" />
    <glyph glyph-name="jcircumflex" unicode="&#x135;" horiz-adv-x="222" 
d="M-18 -106q6 -2 11.5 -3t10.5 -1q24 0 40 14.5t24 49.5l122 566h72l-124 -572q-14 -65 -45.5 -91.5t-85.5 -26.5q-9 0 -18.5 1t-19.5 3zM226 716h68l72 -138h-64l-49 102l-93 -102h-64z" />
    <glyph glyph-name="Kcommaaccent" unicode="&#x136;" 
d="M290 722l-80 -368h2l282 368h84l-195 -252l65 -470h-84l-50 390h-2l-130 -168l-48 -222h-78l156 722h78zM276 -46l-17 -77l-63 -93h-28l55 93h-37l17 77h73z" />
    <glyph glyph-name="kcommaaccent" unicode="&#x137;" horiz-adv-x="389" 
d="M222 722h72l-99 -456h2l193 254h74l-132 -166l44 -354h-74l-33 282h-2l-96 -128l-33 -154h-72zM245 -46l-17 -77l-63 -93h-28l55 93h-37l17 77h73z" />
    <glyph glyph-name="Lacute" unicode="&#x139;" horiz-adv-x="389" 
d="M300 722l-142 -656h234l-14 -66h-235h-77l156 722h78zM289 760h-50l127 138h78z" />
    <glyph glyph-name="lacute" unicode="&#x13a;" horiz-adv-x="222" 
d="M231 722h72l-156 -722h-72zM266 760h-50l127 138h78z" />
    <glyph glyph-name="Lcommaaccent" unicode="&#x13b;" horiz-adv-x="389" 
d="M300 722l-142 -656h234l-14 -66h-235h-77l156 722h78zM249 -46l-17 -77l-63 -93h-28l55 93h-37l17 77h73z" />
    <glyph glyph-name="lcommaaccent" unicode="&#x13c;" horiz-adv-x="222" 
d="M231 722h72l-156 -722h-72zM139 -46l-17 -77l-63 -93h-28l55 93h-37l17 77h73z" />
    <glyph glyph-name="Lcaron" unicode="&#x13d;" horiz-adv-x="389" 
d="M300 722l-142 -656h234l-14 -66h-235h-77l156 722h78zM427 722l-16 -73l-60 -89h-27l52 89h-36l16 73h71z" />
    <glyph glyph-name="lcaron" unicode="&#x13e;" horiz-adv-x="222" 
d="M231 722h72l-156 -722h-72zM414 722l-16 -73l-60 -89h-27l52 89h-36l16 73h71z" />
    <glyph glyph-name="Ldot" unicode="&#x13f;" horiz-adv-x="389" 
d="M300 722l-142 -656h234l-14 -66h-235h-77l156 722h78zM319 412h66l-22 -102h-66z" />
    <glyph glyph-name="ldot" unicode="&#x140;" horiz-adv-x="323" 
d="M231 722h72l-156 -722h-72zM312 412h66l-22 -102h-66z" />
    <glyph glyph-name="Lslash" unicode="&#x141;" horiz-adv-x="389" 
d="M158 66h234l-14 -66h-234h-78l64 299l-87 -32l14 62l87 32l78 361h78l-71 -329l167 62l-13 -62l-168 -62z" />
    <glyph glyph-name="lslash" unicode="&#x142;" horiz-adv-x="222" 
d="M147 0h-72l79 369l-88 -41l13 60l88 41l64 293h72l-56 -256l88 40l-13 -60l-88 -40z" />
    <glyph glyph-name="Nacute" unicode="&#x143;" horiz-adv-x="500" 
d="M290 722h44l71 -532h2l115 532h78l-156 -722h-84l-89 628h-2l-135 -628h-78l156 722h78zM411 760h-50l127 138h78z" />
    <glyph glyph-name="nacute" unicode="&#x144;" 
d="M184 520h68l-12 -57q15 13 33 25t35.5 21.5t34 15t29.5 5.5q44 0 67.5 -20.5t23.5 -65.5q0 -22 -6 -50l-85 -394h-72l83 384q5 25 5 39q0 47 -44 47q-26 0 -54 -17t-59 -47l-87 -406h-72zM348 578h-50l127 138h78z" />
    <glyph glyph-name="Ncommaaccent" unicode="&#x145;" horiz-adv-x="500" 
d="M290 722h44l71 -532h2l115 532h78l-156 -722h-84l-89 628h-2l-135 -628h-78l156 722h78zM286 -46l-17 -77l-63 -93h-28l55 93h-37l17 77h73z" />
    <glyph glyph-name="ncommaaccent" unicode="&#x146;" 
d="M184 520h68l-12 -57q15 13 33 25t35.5 21.5t34 15t29.5 5.5q44 0 67.5 -20.5t23.5 -65.5q0 -22 -6 -50l-85 -394h-72l83 384q5 25 5 39q0 47 -44 47q-26 0 -54 -17t-59 -47l-87 -406h-72zM251 -46l-17 -77l-63 -93h-28l55 93h-37l17 77h73z" />
    <glyph glyph-name="Ncaron" unicode="&#x147;" horiz-adv-x="500" 
d="M290 722h44l71 -532h2l115 532h78l-156 -722h-84l-89 628h-2l-135 -628h-78l156 722h78zM308 898h64l49 -102l93 102h64l-130 -138h-68z" />
    <glyph glyph-name="ncaron" unicode="&#x148;" 
d="M184 520h68l-12 -57q15 13 33 25t35.5 21.5t34 15t29.5 5.5q44 0 67.5 -20.5t23.5 -65.5q0 -22 -6 -50l-85 -394h-72l83 384q5 25 5 39q0 47 -44 47q-26 0 -54 -17t-59 -47l-87 -406h-72zM238 716h64l49 -102l93 102h64l-130 -138h-68z" />
    <glyph glyph-name="Omacron" unicode="&#x14c;" horiz-adv-x="500" 
d="M454 361q24 114 24 179q0 37 -6.5 61t-17.5 38.5t-26.5 20.5t-33.5 6q-26 0 -52 -13t-50.5 -47.5t-47 -93.5t-42.5 -151q-24 -114 -24 -179q0 -37 6.5 -61t17.5 -38.5t26.5 -20.5t33.5 -6q26 0 52 13t50.5 47.5t47 93.5t42.5 151zM532 361q-22 -101 -52 -171.5
t-66.5 -115t-78.5 -64.5t-88 -20q-68 0 -107 44.5t-39 146.5q0 37 5.5 81.5t17.5 98.5q22 101 52 171.5t66 115t78 64.5t88 20q68 0 107 -45t39 -148q0 -75 -22 -178zM283 796l11 48h266l-11 -48h-266z" />
    <glyph glyph-name="omacron" unicode="&#x14d;" horiz-adv-x="389" 
d="M163 260q-19 -89 -19 -137q0 -44 15.5 -58.5t44.5 -14.5q23 0 41.5 8.5t34 32t29.5 64t28 105.5q19 88 19 135q0 45 -15.5 60t-45.5 15q-23 0 -41 -8.5t-34 -32t-29.5 -64.5t-27.5 -105zM91 260q30 141 82.5 205.5t134.5 64.5q60 0 89 -33t29 -105q0 -52 -17 -132
q-31 -141 -83.5 -205.5t-134.5 -64.5q-60 0 -88.5 33t-28.5 104q0 53 17 133zM185 614l11 48h266l-11 -48h-266z" />
    <glyph glyph-name="Obreve" unicode="&#x14e;" horiz-adv-x="500" 
d="M454 361q24 114 24 179q0 37 -6.5 61t-17.5 38.5t-26.5 20.5t-33.5 6q-26 0 -52 -13t-50.5 -47.5t-47 -93.5t-42.5 -151q-24 -114 -24 -179q0 -37 6.5 -61t17.5 -38.5t26.5 -20.5t33.5 -6q26 0 52 13t50.5 47.5t47 93.5t42.5 151zM532 361q-22 -101 -52 -171.5
t-66.5 -115t-78.5 -64.5t-88 -20q-68 0 -107 44.5t-39 146.5q0 37 5.5 81.5t17.5 98.5q22 101 52 171.5t66 115t78 64.5t88 20q68 0 107 -45t39 -148q0 -75 -22 -178zM344 892q-1 -5 -1 -15q0 -34 21 -49.5t58 -15.5q42 0 65 21t39 59h38q-18 -61 -60 -94.5t-103 -33.5
q-49 0 -73 28.5t-24 72.5q0 7 0.5 13.5t1.5 13.5h38z" />
    <glyph glyph-name="obreve" unicode="&#x14f;" horiz-adv-x="389" 
d="M163 260q-19 -89 -19 -137q0 -44 15.5 -58.5t44.5 -14.5q23 0 41.5 8.5t34 32t29.5 64t28 105.5q19 88 19 135q0 45 -15.5 60t-45.5 15q-23 0 -41 -8.5t-34 -32t-29.5 -64.5t-27.5 -105zM91 260q30 141 82.5 205.5t134.5 64.5q60 0 89 -33t29 -105q0 -52 -17 -132
q-31 -141 -83.5 -205.5t-134.5 -64.5q-60 0 -88.5 33t-28.5 104q0 53 17 133zM251 710q-1 -5 -1 -15q0 -34 21 -49.5t58 -15.5q42 0 65 21t39 59h38q-18 -61 -60 -94.5t-103 -33.5q-49 0 -73 28.5t-24 72.5q0 7 0.5 13.5t1.5 13.5h38z" />
    <glyph glyph-name="Ohungarumlaut" unicode="&#x150;" horiz-adv-x="500" 
d="M454 361q24 114 24 179q0 37 -6.5 61t-17.5 38.5t-26.5 20.5t-33.5 6q-26 0 -52 -13t-50.5 -47.5t-47 -93.5t-42.5 -151q-24 -114 -24 -179q0 -37 6.5 -61t17.5 -38.5t26.5 -20.5t33.5 -6q26 0 52 13t50.5 47.5t47 93.5t42.5 151zM532 361q-22 -101 -52 -171.5
t-66.5 -115t-78.5 -64.5t-88 -20q-68 0 -107 44.5t-39 146.5q0 37 5.5 81.5t17.5 98.5q22 101 52 171.5t66 115t78 64.5t88 20q68 0 107 -45t39 -148q0 -75 -22 -178zM473 760h-50l127 138h78zM357 760h-48l119 138h80z" />
    <glyph glyph-name="ohungarumlaut" unicode="&#x151;" horiz-adv-x="389" 
d="M163 260q-19 -89 -19 -137q0 -44 15.5 -58.5t44.5 -14.5q23 0 41.5 8.5t34 32t29.5 64t28 105.5q19 88 19 135q0 45 -15.5 60t-45.5 15q-23 0 -41 -8.5t-34 -32t-29.5 -64.5t-27.5 -105zM91 260q30 141 82.5 205.5t134.5 64.5q60 0 89 -33t29 -105q0 -52 -17 -132
q-31 -141 -83.5 -205.5t-134.5 -64.5q-60 0 -88.5 33t-28.5 104q0 53 17 133zM375 578h-50l127 138h78zM259 578h-48l119 138h80z" />
    <glyph glyph-name="Racute" unicode="&#x154;" horiz-adv-x="500" 
d="M231 406h68q84 0 123 32t52 93q5 25 5 41q0 42 -28.5 63t-97.5 21h-68zM222 722h77h97q75 0 119 -36t44 -103q0 -23 -6 -48q-13 -61 -51 -108.5t-103 -68.5l45 -358h-82l-42 342l-103 -4l-73 -338h-78zM381 760h-50l127 138h78z" />
    <glyph glyph-name="racute" unicode="&#x155;" horiz-adv-x="278" 
d="M178 520h72l-14 -63h2q21 24 39 38t35 22t35 10.5t39 2.5l-15 -68q-20 0 -39 -4t-37.5 -14.5t-37 -28t-39.5 -45.5l-80 -370h-72zM294 578h-50l127 138h78z" />
    <glyph glyph-name="Rcommaaccent" unicode="&#x156;" horiz-adv-x="500" 
d="M231 406h68q84 0 123 32t52 93q5 25 5 41q0 42 -28.5 63t-97.5 21h-68zM222 722h77h97q75 0 119 -36t44 -103q0 -23 -6 -48q-13 -61 -51 -108.5t-103 -68.5l45 -358h-82l-42 342l-103 -4l-73 -338h-78zM278 -46l-17 -77l-63 -93h-28l55 93h-37l17 77h73z" />
    <glyph glyph-name="rcommaaccent" unicode="&#x157;" horiz-adv-x="278" 
d="M178 520h72l-14 -63h2q21 24 39 38t35 22t35 10.5t39 2.5l-15 -68q-20 0 -39 -4t-37.5 -14.5t-37 -28t-39.5 -45.5l-80 -370h-72zM131 -46l-17 -77l-63 -93h-28l55 93h-37l17 77h73z" />
    <glyph glyph-name="Rcaron" unicode="&#x158;" horiz-adv-x="500" 
d="M231 406h68q84 0 123 32t52 93q5 25 5 41q0 42 -28.5 63t-97.5 21h-68zM222 722h77h97q75 0 119 -36t44 -103q0 -23 -6 -48q-13 -61 -51 -108.5t-103 -68.5l45 -358h-82l-42 342l-103 -4l-73 -338h-78zM279 898h64l49 -102l93 102h64l-130 -138h-68z" />
    <glyph glyph-name="rcaron" unicode="&#x159;" horiz-adv-x="278" 
d="M178 520h72l-14 -63h2q21 24 39 38t35 22t35 10.5t39 2.5l-15 -68q-20 0 -39 -4t-37.5 -14.5t-37 -28t-39.5 -45.5l-80 -370h-72zM181 716h64l49 -102l93 102h64l-130 -138h-68z" />
    <glyph glyph-name="Sacute" unicode="&#x15a;" 
d="M440 536q3 18 3 35q0 42 -19 68.5t-67 26.5q-45 0 -78 -26.5t-42 -68.5q-3 -14 -3 -27q0 -31 16 -55.5t39.5 -45.5t51 -41.5t51 -45.5t39.5 -56.5t16 -74.5q0 -23 -6 -51q-19 -87 -77 -135.5t-148 -48.5q-71 0 -108 40t-37 108q0 26 6 56h72q-4 -20 -4 -42
q0 -45 23 -70.5t71 -25.5q49 0 84.5 30.5t47.5 88.5q3 15 3 28q0 32 -16 57t-39.5 47.5t-51 44.5t-51 46.5t-39.5 54.5t-16 69q0 17 5 42q8 38 27.5 69t47 53t62 34t73.5 12q67 0 104 -37t37 -108q0 -12 -1.5 -24.5t-3.5 -26.5h-72zM372 760h-50l127 138h78z" />
    <glyph glyph-name="sacute" unicode="&#x15b;" horiz-adv-x="389" 
d="M357 388q-2 34 -15.5 58t-56.5 24q-26 0 -46 -18t-25 -44q-2 -10 -2 -15q0 -21 12.5 -37.5t31 -31.5t40 -29.5t40 -32.5t31 -40.5t12.5 -53.5q0 -8 -1 -16.5t-3 -17.5q-7 -31 -23.5 -57t-39.5 -45.5t-51.5 -30.5t-59.5 -11q-71 0 -101 36t-35 102l69 14q2 -17 6.5 -33.5
t13 -29.5t22 -21t33.5 -8q15 0 29.5 6.5t27.5 17t22.5 25t12.5 30.5q1 5 1.5 9.5t0.5 9.5q0 23 -12 41t-30.5 33.5t-40 30t-40 32t-30.5 39t-12 50.5q0 13 3 30q6 25 20.5 48t36.5 40.5t48.5 27.5t56.5 10q60 0 89 -32.5t29 -91.5zM316 578h-50l127 138h78z" />
    <glyph glyph-name="Scircumflex" unicode="&#x15c;" 
d="M440 536q3 18 3 35q0 42 -19 68.5t-67 26.5q-45 0 -78 -26.5t-42 -68.5q-3 -14 -3 -27q0 -31 16 -55.5t39.5 -45.5t51 -41.5t51 -45.5t39.5 -56.5t16 -74.5q0 -23 -6 -51q-19 -87 -77 -135.5t-148 -48.5q-71 0 -108 40t-37 108q0 26 6 56h72q-4 -20 -4 -42
q0 -45 23 -70.5t71 -25.5q49 0 84.5 30.5t47.5 88.5q3 15 3 28q0 32 -16 57t-39.5 47.5t-51 44.5t-51 46.5t-39.5 54.5t-16 69q0 17 5 42q8 38 27.5 69t47 53t62 34t73.5 12q67 0 104 -37t37 -108q0 -12 -1.5 -24.5t-3.5 -26.5h-72zM373 898h68l72 -138h-64l-49 102
l-93 -102h-64z" />
    <glyph glyph-name="scircumflex" unicode="&#x15d;" horiz-adv-x="389" 
d="M357 388q-2 34 -15.5 58t-56.5 24q-26 0 -46 -18t-25 -44q-2 -10 -2 -15q0 -21 12.5 -37.5t31 -31.5t40 -29.5t40 -32.5t31 -40.5t12.5 -53.5q0 -8 -1 -16.5t-3 -17.5q-7 -31 -23.5 -57t-39.5 -45.5t-51.5 -30.5t-59.5 -11q-71 0 -101 36t-35 102l69 14q2 -17 6.5 -33.5
t13 -29.5t22 -21t33.5 -8q15 0 29.5 6.5t27.5 17t22.5 25t12.5 30.5q1 5 1.5 9.5t0.5 9.5q0 23 -12 41t-30.5 33.5t-40 30t-40 32t-30.5 39t-12 50.5q0 13 3 30q6 25 20.5 48t36.5 40.5t48.5 27.5t56.5 10q60 0 89 -32.5t29 -91.5zM312 716h68l72 -138h-64l-49 102l-93 -102
h-64z" />
    <glyph glyph-name="Scedilla" unicode="&#x15e;" 
d="M99 -156q10 -5 25.5 -9.5t35.5 -4.5q30 0 50.5 11.5t25.5 29.5q1 3 1 8q0 14 -11.5 24.5t-34.5 10.5q-12 0 -22.5 -3t-21.5 -7l-11 14l68 72q-62 4 -96 40q-37 40 -37 108q0 26 6 56h72q-4 -20 -4 -42q0 -45 23 -70.5t71 -25.5q49 0 84.5 30.5t47.5 88.5q3 15 3 28
q0 32 -16 57t-39.5 47.5t-51 44.5t-51 46.5t-39.5 54.5t-16 69q0 17 5 42q8 38 27.5 69t47 53t62 34t73.5 12q67 0 104 -37t37 -108q0 -12 -1.5 -24.5t-3.5 -26.5h-72q3 18 3 35q0 42 -19 68.5t-67 26.5q-45 0 -78 -26.5t-42 -68.5q-3 -14 -3 -27q0 -31 16 -55.5t39.5 -45.5
t51 -41.5t51 -45.5t39.5 -56.5t16 -74.5q0 -23 -6 -51q-19 -87 -77 -136q-49 -40 -121 -47l-50 -49l2 -2q10 6 32 6q27 0 46 -13.5t19 -40.5q0 -5 -0.5 -9t-1.5 -9q-5 -21 -17 -37.5t-29.5 -28t-38 -18t-42.5 -6.5q-29 0 -49 3.5t-39 12.5z" />
    <glyph glyph-name="scedilla" unicode="&#x15f;" horiz-adv-x="389" 
d="M76 -156q10 -5 25.5 -9.5t35.5 -4.5q30 0 50.5 11.5t25.5 29.5q1 3 1 8q0 14 -11.5 24.5t-34.5 10.5q-12 0 -22.5 -3t-21.5 -7l-11 14l69 73q-56 4 -82 35q-30 36 -35 102l69 14q2 -17 6.5 -33.5t13 -29.5t22 -21t33.5 -8q15 0 29.5 6.5t27.5 17t22.5 25t12.5 30.5
q1 5 1.5 9.5t0.5 9.5q0 23 -12 41t-30.5 33.5t-40 30t-40 32t-30.5 39t-12 50.5q0 13 3 30q6 25 20.5 48t36.5 40.5t48.5 27.5t56.5 10q60 0 89 -32.5t29 -91.5l-64 -18q-2 34 -15.5 58t-56.5 24q-26 0 -46 -18t-25 -44q-2 -10 -2 -15q0 -21 12.5 -37.5t31 -31.5t40 -29.5
t40 -32.5t31 -40.5t12.5 -53.5q0 -8 -1 -16.5t-3 -17.5q-7 -31 -23.5 -57t-39.5 -45.5t-52 -30.5q-20 -7 -41 -10l-49 -49l2 -2q10 6 32 6q27 0 46 -13.5t19 -40.5q0 -5 -0.5 -9t-1.5 -9q-5 -21 -17 -37.5t-29.5 -28t-38 -18t-42.5 -6.5q-29 0 -49 3.5t-39 12.5z" />
    <glyph glyph-name="Tcommaaccent" unicode="&#x162;" horiz-adv-x="389" 
d="M537 722l-15 -66h-148l-141 -656h-78l141 656h-148l15 66h146h79h149zM221 -46l-17 -77l-63 -93h-28l55 93h-37l17 77h73z" />
    <glyph glyph-name="tcommaaccent" unicode="&#x163;" horiz-adv-x="278" 
d="M120 520h70l38 174h72l-38 -174h96l-13 -60h-96l-79 -364q-2 -10 -2 -15q0 -17 10 -27t33 -10q11 0 23.5 3.5t22.5 6.5l-11 -54q-17 -5 -32.5 -7.5t-38.5 -2.5q-41 0 -61 16t-20 52q0 18 6 44l77 358h-70zM182 -46l-17 -77l-63 -93h-28l55 93h-37l17 77h73z" />
    <glyph glyph-name="Tcaron" unicode="&#x164;" horiz-adv-x="389" 
d="M537 722l-15 -66h-148l-141 -656h-78l141 656h-148l15 66h146h79h149zM246 898h64l49 -102l93 102h64l-130 -138h-68z" />
    <glyph glyph-name="tcaron" unicode="&#x165;" horiz-adv-x="278" 
d="M120 520h70l38 174h72l-38 -174h96l-13 -60h-96l-79 -364q-2 -10 -2 -15q0 -17 10 -27t33 -10q11 0 23.5 3.5t22.5 6.5l-11 -54q-17 -5 -32.5 -7.5t-38.5 -2.5q-41 0 -61 16t-20 52q0 18 6 44l77 358h-70zM425 722l-16 -73l-60 -89h-27l52 89h-36l16 73h71z" />
    <glyph glyph-name="Tbar" unicode="&#x166;" horiz-adv-x="389" 
d="M147 509h118l31 147h-148l15 66h374l-15 -66h-148l-31 -147h117l-13 -60h-117l-97 -449h-78l97 449h-118z" />
    <glyph glyph-name="tbar" unicode="&#x167;" horiz-adv-x="278" 
d="M120 520h70l38 174h72l-38 -174h96l-13 -60h-96l-24 -108h83l-12 -59h-83l-43 -197q-2 -10 -2 -15q0 -17 10 -27t33 -10q11 0 23.5 3.5t22.5 6.5l-11 -54q-17 -5 -32.5 -7.5t-38.5 -2.5q-41 0 -61 16t-20 52q0 18 6 44l41 191h-63l12 59h63l24 108h-70z" />
    <glyph glyph-name="Utilde" unicode="&#x168;" horiz-adv-x="500" 
d="M300 722l-115 -530q-3 -14 -5 -27.5t-2 -26.5q0 -36 18 -59t66 -23q32 0 55 11t38.5 29.5t25.5 43.5t16 52l115 530h78l-115 -532q-9 -44 -27.5 -80.5t-47 -63t-66.5 -41.5t-87 -15q-78 0 -113 37.5t-35 98.5q0 15 2 31t6 33l115 532h78zM270 770q4 16 13 33.5t22 31.5
t29 23.5t34 9.5q19 0 35.5 -7t30.5 -15q15 -8 28.5 -15t26.5 -7q22 0 32.5 15.5t16.5 34.5h36q-5 -18 -13 -36t-20 -31.5t-28.5 -22t-37.5 -8.5q-16 0 -31.5 7t-29.5 15q-15 8 -29 15t-28 7q-21 0 -33.5 -15.5t-17.5 -34.5h-36z" />
    <glyph glyph-name="utilde" unicode="&#x169;" 
d="M372 0h-68l12 57q-16 -13 -34 -25t-35.5 -21.5t-34 -15t-29.5 -5.5q-44 0 -67 20t-23 65q0 22 6 51l85 394h72l-83 -384q-5 -25 -5 -40q0 -46 43 -46q26 0 54.5 17t58.5 47l88 406h72zM206 588q4 16 13 33.5t22 31.5t29 23.5t34 9.5q19 0 35.5 -7t30.5 -15
q15 -8 28.5 -15t26.5 -7q22 0 32.5 15.5t16.5 34.5h36q-5 -18 -13 -36t-20 -31.5t-28.5 -22t-37.5 -8.5q-16 0 -31.5 7t-29.5 15q-15 8 -29 15t-28 7q-21 0 -33.5 -15.5t-17.5 -34.5h-36z" />
    <glyph glyph-name="Umacron" unicode="&#x16a;" horiz-adv-x="500" 
d="M300 722l-115 -530q-3 -14 -5 -27.5t-2 -26.5q0 -36 18 -59t66 -23q32 0 55 11t38.5 29.5t25.5 43.5t16 52l115 530h78l-115 -532q-9 -44 -27.5 -80.5t-47 -63t-66.5 -41.5t-87 -15q-78 0 -113 37.5t-35 98.5q0 15 2 31t6 33l115 532h78zM282 796l11 48h266l-11 -48h-266
z" />
    <glyph glyph-name="umacron" unicode="&#x16b;" 
d="M372 0h-68l12 57q-16 -13 -34 -25t-35.5 -21.5t-34 -15t-29.5 -5.5q-44 0 -67 20t-23 65q0 22 6 51l85 394h72l-83 -384q-5 -25 -5 -40q0 -46 43 -46q26 0 54.5 17t58.5 47l88 406h72zM218 614l11 48h266l-11 -48h-266z" />
    <glyph glyph-name="Ubreve" unicode="&#x16c;" horiz-adv-x="500" 
d="M300 722l-115 -530q-3 -14 -5 -27.5t-2 -26.5q0 -36 18 -59t66 -23q32 0 55 11t38.5 29.5t25.5 43.5t16 52l115 530h78l-115 -532q-9 -44 -27.5 -80.5t-47 -63t-66.5 -41.5t-87 -15q-78 0 -113 37.5t-35 98.5q0 15 2 31t6 33l115 532h78zM346 892q-1 -5 -1 -15
q0 -34 21 -49.5t58 -15.5q42 0 65 21t39 59h38q-18 -61 -60 -94.5t-103 -33.5q-49 0 -73 28.5t-24 72.5q0 7 0.5 13.5t1.5 13.5h38z" />
    <glyph glyph-name="ubreve" unicode="&#x16d;" 
d="M372 0h-68l12 57q-16 -13 -34 -25t-35.5 -21.5t-34 -15t-29.5 -5.5q-44 0 -67 20t-23 65q0 22 6 51l85 394h72l-83 -384q-5 -25 -5 -40q0 -46 43 -46q26 0 54.5 17t58.5 47l88 406h72zM280 710q-1 -5 -1 -15q0 -34 21 -49.5t58 -15.5q42 0 65 21t39 59h38
q-18 -61 -60 -94.5t-103 -33.5q-49 0 -73 28.5t-24 72.5q0 7 0.5 13.5t1.5 13.5h38z" />
    <glyph glyph-name="Uring" unicode="&#x16e;" horiz-adv-x="500" 
d="M300 722l-115 -530q-3 -14 -5 -27.5t-2 -26.5q0 -36 18 -59t66 -23q32 0 55 11t38.5 29.5t25.5 43.5t16 52l115 530h78l-115 -532q-9 -44 -27.5 -80.5t-47 -63t-66.5 -41.5t-87 -15q-78 0 -113 37.5t-35 98.5q0 15 2 31t6 33l115 532h78zM376 855q-1 -3 -1 -10
q0 -18 12 -30.5t31 -12.5q21 0 40 16t24 37q1 3 1 10q0 18 -12 30.5t-30 12.5q-21 0 -40.5 -16t-24.5 -37zM334 855q4 19 15 36.5t27 30.5t35 20.5t39 7.5q35 0 55.5 -21.5t20.5 -53.5q0 -5 -0.5 -10t-1.5 -10q-4 -20 -15 -37t-26.5 -30t-34.5 -20.5t-39 -7.5
q-35 0 -56 21.5t-21 53.5q0 5 0.5 10t1.5 10z" />
    <glyph glyph-name="uring" unicode="&#x16f;" 
d="M372 0h-68l12 57q-16 -13 -34 -25t-35.5 -21.5t-34 -15t-29.5 -5.5q-44 0 -67 20t-23 65q0 22 6 51l85 394h72l-83 -384q-5 -25 -5 -40q0 -46 43 -46q26 0 54.5 17t58.5 47l88 406h72zM311 673q-1 -3 -1 -10q0 -18 12 -30.5t31 -12.5q21 0 40 16t24 37q1 3 1 10
q0 18 -12 30.5t-30 12.5q-21 0 -40.5 -16t-24.5 -37zM269 673q4 19 15 36.5t27 30.5t35 20.5t39 7.5q35 0 55.5 -21.5t20.5 -53.5q0 -5 -0.5 -10t-1.5 -10q-4 -20 -15 -37t-26.5 -30t-34.5 -20.5t-39 -7.5q-35 0 -56 21.5t-21 53.5q0 5 0.5 10t1.5 10z" />
    <glyph glyph-name="Uhungarumlaut" unicode="&#x170;" horiz-adv-x="500" 
d="M300 722l-115 -530q-3 -14 -5 -27.5t-2 -26.5q0 -36 18 -59t66 -23q32 0 55 11t38.5 29.5t25.5 43.5t16 52l115 530h78l-115 -532q-9 -44 -27.5 -80.5t-47 -63t-66.5 -41.5t-87 -15q-78 0 -113 37.5t-35 98.5q0 15 2 31t6 33l115 532h78zM471 760h-50l127 138h78z
M355 760h-48l119 138h80z" />
    <glyph glyph-name="uhungarumlaut" unicode="&#x171;" 
d="M372 0h-68l12 57q-16 -13 -34 -25t-35.5 -21.5t-34 -15t-29.5 -5.5q-44 0 -67 20t-23 65q0 22 6 51l85 394h72l-83 -384q-5 -25 -5 -40q0 -46 43 -46q26 0 54.5 17t58.5 47l88 406h72zM405 578h-50l127 138h78zM289 578h-48l119 138h80z" />
    <glyph glyph-name="Uogonek" unicode="&#x172;" horiz-adv-x="500" 
d="M300 722l-115 -530q-3 -14 -5 -27.5t-2 -26.5q0 -36 18 -59t66 -23q32 0 55 11t38.5 29.5t25.5 43.5t16 52l115 530h78l-115 -532q-9 -44 -27.5 -80.5t-47 -63t-66.5 -41.5l-14 -5q-4 -1 -8 -3q-29 -13 -56.5 -29.5t-49 -37t-26.5 -45.5q-1 -5 -1.5 -9t-0.5 -8
q0 -20 13 -28t36 -8q14 0 29.5 4t31 10.5t29.5 13.5t25 13l9 -32q-35 -21 -78 -38t-81 -17q-29 0 -50 15t-21 48q0 11 3 23q8 38 35.5 64.5t64.5 44.5q10 5 19 9q-75 1 -109 37q-35 38 -35 99q0 15 2 31t6 33l115 532h78z" />
    <glyph glyph-name="uogonek" unicode="&#x173;" 
d="M372 0h-9q-11 -5 -32 -13q-24 -10 -48.5 -26.5t-43 -39.5t-18.5 -54q0 -18 11.5 -26.5t31.5 -8.5q24 0 44 8t45 23l10 -32q-33 -21 -61 -33t-64 -12q-32 0 -53 16t-21 48q0 31 15.5 56.5t38 44.5t47.5 32q24 11 42 17h-3l12 57q-16 -13 -34 -25t-35.5 -21.5t-34 -15
t-29.5 -5.5q-44 0 -67 20t-23 65q0 22 6 51l85 394h72l-83 -384q-5 -25 -5 -40q0 -46 43 -46q26 0 54.5 17t58.5 47l88 406h72z" />
    <glyph glyph-name="Wcircumflex" unicode="&#x174;" horiz-adv-x="611" 
d="M234 722l-36 -564h2l230 564h64l-10 -564h2l202 564h72l-272 -722h-66l8 567h-2l-236 -567h-66l36 722h72zM460 898h68l72 -138h-64l-49 102l-93 -102h-64z" />
    <glyph glyph-name="wcircumflex" unicode="&#x175;" horiz-adv-x="556" 
d="M198 520l-9 -382h2l167 382h68l3 -382h2l151 382h68l-220 -520h-60l-3 404h-2l-177 -404h-60l2 520h68zM394 716h68l72 -138h-64l-49 102l-93 -102h-64z" />
    <glyph glyph-name="Ycircumflex" unicode="&#x176;" 
d="M256 722l55 -316l189 316h84l-256 -416l-66 -306h-78l66 306l-78 416h84zM375 898h68l72 -138h-64l-49 102l-93 -102h-64z" />
    <glyph glyph-name="ycircumflex" unicode="&#x177;" horiz-adv-x="333" 
d="M188 520l12 -398h2l166 398h74l-229 -509q-39 -86 -88 -133.5t-115 -47.5h-36l13 60h21q43 0 76.5 29.5t55.5 84.5l-26 516h74zM283 716h68l72 -138h-64l-49 102l-93 -102h-64z" />
    <glyph glyph-name="Zacute" unicode="&#x179;" 
d="M556 722l-12 -54l-398 -602h268l-14 -66h-356l12 56l389 600h-236l15 66h332zM396 760h-50l127 138h78z" />
    <glyph glyph-name="zacute" unicode="&#x17a;" horiz-adv-x="333" 
d="M151 520h270l-10 -48l-296 -412h206l-12 -60h-286l11 54l288 406h-184zM293 578h-50l127 138h78z" />
    <glyph glyph-name="Zdotaccent" unicode="&#x17b;" 
d="M556 722l-12 -54l-398 -602h268l-14 -66h-356l12 56l389 600h-236l15 66h332zM388 872h66l-22 -102h-66z" />
    <glyph glyph-name="zdotaccent" unicode="&#x17c;" horiz-adv-x="333" 
d="M151 520h270l-10 -48l-296 -412h206l-12 -60h-286l11 54l288 406h-184zM289 690h66l-22 -102h-66z" />
    <glyph glyph-name="Scommaaccent" unicode="&#x218;" 
d="M440 536q3 18 3 35q0 42 -19 68.5t-67 26.5q-45 0 -78 -26.5t-42 -68.5q-3 -14 -3 -27q0 -31 16 -55.5t39.5 -45.5t51 -41.5t51 -45.5t39.5 -56.5t16 -74.5q0 -23 -6 -51q-19 -87 -77 -135.5t-148 -48.5q-71 0 -108 40t-37 108q0 26 6 56h72q-4 -20 -4 -42
q0 -45 23 -70.5t71 -25.5q49 0 84.5 30.5t47.5 88.5q3 15 3 28q0 32 -16 57t-39.5 47.5t-51 44.5t-51 46.5t-39.5 54.5t-16 69q0 17 5 42q8 38 27.5 69t47 53t62 34t73.5 12q67 0 104 -37t37 -108q0 -12 -1.5 -24.5t-3.5 -26.5h-72zM254 -46l-17 -77l-63 -93h-28l55 93h-37
l17 77h73z" />
    <glyph glyph-name="scommaaccent" unicode="&#x219;" horiz-adv-x="389" 
d="M357 388q-2 34 -15.5 58t-56.5 24q-26 0 -46 -18t-25 -44q-2 -10 -2 -15q0 -21 12.5 -37.5t31 -31.5t40 -29.5t40 -32.5t31 -40.5t12.5 -53.5q0 -8 -1 -16.5t-3 -17.5q-7 -31 -23.5 -57t-39.5 -45.5t-51.5 -30.5t-59.5 -11q-71 0 -101 36t-35 102l69 14q2 -17 6.5 -33.5
t13 -29.5t22 -21t33.5 -8q15 0 29.5 6.5t27.5 17t22.5 25t12.5 30.5q1 5 1.5 9.5t0.5 9.5q0 23 -12 41t-30.5 33.5t-40 30t-40 32t-30.5 39t-12 50.5q0 13 3 30q6 25 20.5 48t36.5 40.5t48.5 27.5t56.5 10q60 0 89 -32.5t29 -91.5zM224 -46l-17 -77l-63 -93h-28l55 93h-37
l17 77h73z" />
    <glyph glyph-name="uni021A" unicode="&#x21a;" horiz-adv-x="389" 
d="M537 722l-15 -66h-148l-141 -656h-78l141 656h-148l15 66h146h79h149zM221 -46l-17 -77l-63 -93h-28l55 93h-37l17 77h73z" />
    <glyph glyph-name="uni021B" unicode="&#x21b;" horiz-adv-x="278" 
d="M120 520h70l38 174h72l-38 -174h96l-13 -60h-96l-79 -364q-2 -10 -2 -15q0 -17 10 -27t33 -10q11 0 23.5 3.5t22.5 6.5l-11 -54q-17 -5 -32.5 -7.5t-38.5 -2.5q-41 0 -61 16t-20 52q0 18 6 44l77 358h-70zM182 -46l-17 -77l-63 -93h-28l55 93h-37l17 77h73z" />
    <glyph glyph-name="dotlessj" unicode="&#x237;" horiz-adv-x="222" 
d="M-18 -106q6 -2 11.5 -3t10.5 -1q24 0 40 14.5t24 49.5l122 566h72l-124 -572q-14 -65 -45.5 -91.5t-85.5 -26.5q-9 0 -18.5 1t-19.5 3z" />
    <glyph glyph-name="caron" unicode="&#x2c7;" horiz-adv-x="222" 
d="M130 716h64l49 -102l93 102h64l-130 -138h-68z" />
    <glyph glyph-name="uni02C9" unicode="&#x2c9;" horiz-adv-x="222" 
d="M110 614l11 48h266l-11 -48h-266z" />
    <glyph glyph-name="breve" unicode="&#x2d8;" horiz-adv-x="222" 
d="M173 710q-1 -5 -1 -15q0 -34 21 -49.5t58 -15.5q42 0 65 21t39 59h38q-18 -61 -60 -94.5t-103 -33.5q-49 0 -73 28.5t-24 72.5q0 7 0.5 13.5t1.5 13.5h38z" />
    <glyph glyph-name="dotaccent" unicode="&#x2d9;" horiz-adv-x="222" 
d="M227 690h66l-22 -102h-66z" />
    <glyph glyph-name="ring" unicode="&#x2da;" horiz-adv-x="222" 
d="M203 673q-1 -3 -1 -10q0 -18 12 -30.5t31 -12.5q21 0 40 16t24 37q1 3 1 10q0 18 -12 30.5t-30 12.5q-21 0 -40.5 -16t-24.5 -37zM161 673q4 19 15 36.5t27 30.5t35 20.5t39 7.5q35 0 55.5 -21.5t20.5 -53.5q0 -5 -0.5 -10t-1.5 -10q-4 -20 -15 -37t-26.5 -30
t-34.5 -20.5t-39 -7.5q-35 0 -56 21.5t-21 53.5q0 5 0.5 10t1.5 10z" />
    <glyph glyph-name="ogonek" unicode="&#x2db;" horiz-adv-x="222" 
d="M200 8q-21 -7 -50 -18t-56.5 -26t-49 -34.5t-26.5 -44.5q-1 -5 -1.5 -9t-0.5 -8q0 -20 13 -28t36 -8q14 0 29.5 4t31 10.5t29.5 13.5t25 13l9 -32q-35 -21 -78 -38t-81 -17q-29 0 -50 15t-21 48q0 11 3 23q8 38 35.5 63.5t63 42t73.5 25.5t68 15z" />
    <glyph glyph-name="hungarumlaut" unicode="&#x2dd;" horiz-adv-x="222" 
d="M285 578h-50l127 138h78zM169 578h-48l119 138h80z" />
    <glyph glyph-name="uni0394" unicode="&#x394;" horiz-adv-x="667" 
d="M472 661l-368 -609h479zM17 0l435 712h63l137 -712h-635z" />
    <glyph glyph-name="uni03A9" unicode="&#x3a9;" horiz-adv-x="741" 
d="M436 0l38 179q99 17 159.5 81t80.5 158q6 30 6 57q0 44 -15.5 80.5t-44 62t-68 39.5t-87.5 14q-54 0 -106 -18.5t-94.5 -52t-73 -80t-41.5 -101.5q-7 -31 -7 -64q0 -69 36 -117.5t111 -58.5l-38 -179h-245l10 48h201l19 92q-37 10 -65 30t-46.5 47.5t-28 61.5t-9.5 72
q0 35 7 67q14 66 51.5 121.5t89.5 96t114.5 63t127.5 22.5q55 0 102.5 -17.5t82 -49t54 -75t19.5 -96.5q0 -32 -7 -63q-11 -49 -34 -94t-56.5 -82t-76 -64t-93.5 -40l-19 -92h201l-10 -48h-245z" />
    <glyph glyph-name="uni03BC" unicode="&#x3bc;" 
d="M372 0h-68l12 57q-16 -13 -34 -25t-35.5 -21.5t-34 -15t-29.5 -5.5q-24 0 -40 6l-36 -166h-72l149 690h72l-83 -384q-5 -25 -5 -40q0 -46 43 -46q26 0 54.5 17t58.5 47l88 406h72z" />
    <glyph glyph-name="pi" unicode="&#x3c0;" horiz-adv-x="556" 
d="M534 10q-18 -8 -31.5 -11.5t-30.5 -3.5q-36 0 -48 13.5t-12 36.5q0 14 2.5 30t6.5 33l68 320h-274l-90 -428h-53l90 428h-69l10 48h525l-11 -48h-74l-70 -331q-2 -8 -3 -16t-1 -14q0 -11 6 -18t23 -7q22 0 45 10z" />
    <glyph glyph-name="fraction" unicode="&#x2044;" horiz-adv-x="167" 
d="M-169 -10l599 742h62l-599 -742h-62z" />
    <glyph glyph-name="afii61289" unicode="&#x2113;" horiz-adv-x="500" 
d="M414 38q-64 -52 -131 -52q-43 0 -70 21t-27 66q0 18 4 37l28 130l-73 -64h-2l-15 27l100 84l56 264q9 42 25 74t36.5 53t44.5 32t48 11q36 0 56.5 -21t20.5 -61q0 -16 -5 -41q-15 -73 -74.5 -153t-159.5 -168l-33 -159q-4 -16 -4 -31q0 -36 20 -48.5t42 -12.5
q21 0 45.5 9.5t50.5 29.5h2zM467 593q3 16 3 31q0 28 -11 44t-30 16q-26 0 -52.5 -30t-40.5 -96l-49 -233q73 69 120 138.5t60 129.5z" />
    <glyph glyph-name="Omega" unicode="&#x2126;" horiz-adv-x="741" 
d="M436 0l38 179q99 17 159.5 81t80.5 158q6 30 6 57q0 44 -15.5 80.5t-44 62t-68 39.5t-87.5 14q-54 0 -106 -18.5t-94.5 -52t-73 -80t-41.5 -101.5q-7 -31 -7 -64q0 -69 36 -117.5t111 -58.5l-38 -179h-245l10 48h201l19 92q-37 10 -65 30t-46.5 47.5t-28 61.5t-9.5 72
q0 35 7 67q14 66 51.5 121.5t89.5 96t114.5 63t127.5 22.5q55 0 102.5 -17.5t82 -49t54 -75t19.5 -96.5q0 -32 -7 -63q-11 -49 -34 -94t-56.5 -82t-76 -64t-93.5 -40l-19 -92h201l-10 -48h-245z" />
    <glyph glyph-name="estimated" unicode="&#x212e;" horiz-adv-x="600" 
d="M157 259v-181q59 -59 145 -59q63 0 109 28.5t84 91.5l35 -21q-23 -36 -46.5 -61.5t-51 -42t-59.5 -24t-71 -7.5q-59 0 -106.5 21.5t-81.5 59t-52 87.5t-18 108t18 108.5t52 87.5t81.5 58.5t106.5 21.5q58 0 105.5 -20.5t81.5 -57t53 -87t19 -111.5h-404zM448 295v145
q-63 60 -147 60t-144 -60v-145h291z" />
    <glyph glyph-name="partialdiff" unicode="&#x2202;" horiz-adv-x="480" 
d="M516 365q-7 -36 -18.5 -77.5t-29 -83.5t-41 -81t-54.5 -69t-69 -48t-85 -18q-46 0 -78 19t-50.5 50t-23 71t4.5 83q9 42 30 80.5t51 67.5t69 46t84 17q51 0 90.5 -25.5t61.5 -65.5q3 14 6.5 28t6.5 28q9 43 11 93t-10 93t-41.5 71.5t-83.5 28.5q-35 0 -62.5 -12.5
t-57.5 -32.5l-22 37q35 27 72.5 41.5t77.5 14.5q56 0 97 -28q36 -25 54.5 -62.5t24 -81.5t0.5 -91.5t-15 -92.5zM440 275q-9 19 -23.5 36.5t-32.5 31.5t-39.5 22.5t-44.5 8.5q-35 0 -64.5 -14t-52 -36.5t-38 -52.5t-22.5 -61q-6 -31 -3.5 -62.5t15 -57t36 -41.5t58.5 -16
q45 0 79.5 24.5t60.5 61.5t43.5 79t27.5 77z" />
    <glyph glyph-name="Delta" unicode="&#x2206;" horiz-adv-x="667" 
d="M472 661l-368 -609h479zM17 0l435 712h63l137 -712h-635z" />
    <glyph glyph-name="product" unicode="&#x220f;" horiz-adv-x="704" 
d="M577 -214v948h-450v-948h-54v1000h558v-1000h-54z" />
    <glyph glyph-name="summation" unicode="&#x2211;" horiz-adv-x="593" 
d="M26 -214v47l335 455l-321 451v47h515v-52h-447l318 -446l-337 -451h478v-51h-541z" />
    <glyph glyph-name="minus" unicode="&#x2212;" horiz-adv-x="600" 
d="M103 293h520l-14 -66h-520z" />
    <glyph glyph-name="uni2215" unicode="&#x2215;" horiz-adv-x="167" 
d="M-169 -10l599 742h62l-599 -742h-62z" />
    <glyph glyph-name="uni2219" unicode="&#x2219;" horiz-adv-x="222" 
d="M118 260q5 20 22 34.5t37 14.5q17 0 28.5 -11t11.5 -28q0 -6 -1 -10q-5 -20 -22.5 -34.5t-37.5 -14.5q-17 0 -28 10.5t-11 27.5q0 7 1 11z" />
    <glyph glyph-name="radical" unicode="&#x221a;" horiz-adv-x="481" 
d="M281 -214h-56l-168 346l-45 -22l-19 40l88 43l166 -346l194 939h49z" />
    <glyph glyph-name="infinity" unicode="&#x221e;" horiz-adv-x="722" 
d="M682 250q0 -30 -9 -55.5t-26 -44.5t-41.5 -29.5t-55.5 -10.5q-28 0 -54 9.5t-49 24.5t-44.5 34t-40.5 37q-21 -18 -42.5 -36.5t-44 -33.5t-47.5 -25t-55 -10t-54.5 10.5t-42 29t-27 43.5t-9.5 54q0 28 9.5 53.5t26.5 45t41 30.5t54 11q29 0 55 -10.5t49.5 -27t45 -36
t41.5 -37.5q21 18 41.5 37.5t42.5 36t47 27.5t55 11t54.5 -10.5t42.5 -29t27.5 -43.5t9.5 -55zM634 246q0 40 -21.5 67t-63.5 27q-21 0 -42 -9.5t-41 -24t-38 -31t-33 -29.5q16 -14 34 -29.5t37.5 -28.5t41 -21.5t44.5 -8.5q39 0 60.5 25.5t21.5 62.5zM328 246
q-16 12 -34.5 28t-38.5 30.5t-41.5 24.5t-43.5 10q-38 0 -60 -28t-22 -64q0 -39 23 -64t63 -25q20 0 41.5 8.5t41.5 22t38.5 28.5t32.5 29z" />
    <glyph glyph-name="integral" unicode="&#x222b;" horiz-adv-x="537" 
d="M395 742q0 -14 -9.5 -23t-23.5 -9t-21 6t-10.5 13.5t-6.5 14t-9 6.5q-12 0 -20 -13t-12.5 -33t-6 -44t-2 -46.5t0 -40.5t0.5 -25v-501v-47.5t-3 -56.5t-9.5 -57t-19.5 -50.5t-34 -36t-51 -13.5q-21 0 -38 11t-17 34q0 14 9 23t23 9q20 0 26 -12.5t14 -26.5q4 -2 6 -2
q11 0 18 13t11 33t6.5 43.5t3.5 44.5t1 36v18v495q0 21 -1 50.5t0.5 60.5t6.5 61.5t17.5 54.5t34 39t55.5 15q21 0 41 -9.5t20 -34.5z" />
    <glyph glyph-name="approxequal" unicode="&#x2248;" horiz-adv-x="600" 
d="M643 390q-8 -25 -21 -48t-31 -41t-41.5 -29t-51.5 -11q-33 0 -68.5 11.5t-70 25.5t-67.5 25.5t-61 11.5q-36 0 -62.5 -25t-38.5 -58h-38q9 25 22 48.5t30.5 42t40.5 29.5t53 11q33 0 68 -11.5t69.5 -25.5t68 -25.5t62.5 -11.5q37 0 62 24t38 57h37zM609 229
q-8 -25 -21 -48t-31.5 -41t-41.5 -29t-51 -11q-34 0 -69 11.5t-69.5 25.5t-67.5 25.5t-62 11.5q-36 0 -62 -25t-38 -58h-38q9 25 22 48.5t30.5 42t40.5 29.5t53 11q33 0 68.5 -11.5t70 -25.5t67.5 -25.5t62 -11.5q37 0 62 24t38 57h37z" />
    <glyph glyph-name="notequal" unicode="&#x2260;" horiz-adv-x="600" 
d="M286 125l-105 -141l-37 23l89 118h-156l10 48h182l100 135h-253l10 48h280l108 145l37 -22l-92 -123h164l-10 -48h-189l-102 -135h262l-10 -48h-288z" />
    <glyph glyph-name="lessequal" unicode="&#x2264;" horiz-adv-x="600" 
d="M106 260l11 54l538 193l-11 -54l-466 -166l395 -166l-11 -54zM45 -25l10 48h497l-10 -48h-497z" />
    <glyph glyph-name="greaterequal" unicode="&#x2265;" horiz-adv-x="600" 
d="M65 67l11 54l466 166l-395 166l11 54l456 -193l-11 -54zM45 -25l10 48h497l-10 -48h-497z" />
    <glyph glyph-name="lozenge" unicode="&#x25ca;" horiz-adv-x="593" 
d="M322 -35h-53l-167 391l167 391h53l169 -391zM296 691l-140 -335l140 -335l142 335z" />
    <glyph glyph-name="grave.cap" unicode="&#xe300;" horiz-adv-x="222" 
d="M146 898h78l69 -138h-50z" />
    <glyph glyph-name="acute.cap" unicode="&#xe301;" horiz-adv-x="222" 
d="M229 760h-50l127 138h78z" />
    <glyph glyph-name="circumflex.cap" unicode="&#xe302;" horiz-adv-x="222" 
d="M231 898h68l72 -138h-64l-49 102l-93 -102h-64z" />
    <glyph glyph-name="caron.cap" unicode="&#xe303;" horiz-adv-x="222" 
d="M130 898h64l49 -102l93 102h64l-130 -138h-68z" />
    <glyph glyph-name="tilde.cap" unicode="&#xe304;" horiz-adv-x="222" 
d="M97 770q4 16 13 33.5t22 31.5t29 23.5t34 9.5q19 0 35.5 -7t30.5 -15q15 -8 28.5 -15t26.5 -7q22 0 32.5 15.5t16.5 34.5h36q-5 -18 -13 -36t-20 -31.5t-28.5 -22t-37.5 -8.5q-16 0 -31.5 7t-29.5 15q-15 8 -29 15t-28 7q-21 0 -33.5 -15.5t-17.5 -34.5h-36z" />
    <glyph glyph-name="dieresis.cap" unicode="&#xe305;" horiz-adv-x="222" 
d="M293 872h66l-22 -102h-66zM161 872h66l-22 -102h-66z" />
    <glyph glyph-name="macron.cap" unicode="&#xe306;" horiz-adv-x="222" 
d="M110 796l11 48h266l-11 -48h-266z" />
    <glyph glyph-name="breve.cap" unicode="&#xe307;" horiz-adv-x="222" 
d="M173 892q-1 -5 -1 -15q0 -34 21 -49.5t58 -15.5q42 0 65 21t39 59h38q-18 -61 -60 -94.5t-103 -33.5q-49 0 -73 28.5t-24 72.5q0 7 0.5 13.5t1.5 13.5h38z" />
    <glyph glyph-name="ring.cap" unicode="&#xe308;" horiz-adv-x="222" 
d="M203 855q-1 -3 -1 -10q0 -18 12 -30.5t31 -12.5q21 0 40 16t24 37q1 3 1 10q0 18 -12 30.5t-30 12.5q-21 0 -40.5 -16t-24.5 -37zM161 855q4 19 15 36.5t27 30.5t35 20.5t39 7.5q35 0 55.5 -21.5t20.5 -53.5q0 -5 -0.5 -10t-1.5 -10q-4 -20 -15 -37t-26.5 -30
t-34.5 -20.5t-39 -7.5q-35 0 -56 21.5t-21 53.5q0 5 0.5 10t1.5 10z" />
    <glyph glyph-name="hungarumlaut.cap" unicode="&#xe309;" horiz-adv-x="222" 
d="M285 760h-50l127 138h78zM169 760h-48l119 138h80z" />
    <glyph glyph-name="dotaccent.cap" unicode="&#xe30a;" horiz-adv-x="222" 
d="M227 872h66l-22 -102h-66z" />
    <glyph glyph-name="caron.alt" unicode="&#xe30b;" horiz-adv-x="222" 
d="M304 722l-16 -73l-60 -89h-27l52 89h-36l16 73h71z" />
    <glyph glyph-name="commaaccent" unicode="&#xe30c;" horiz-adv-x="222" 
d="M139 -46l-17 -77l-63 -93h-28l55 93h-37l17 77h73z" />
    <glyph glyph-name="commaaccent.alt" unicode="&#xe30d;" horiz-adv-x="222" 
d="M201 578l13 64l54 74h24l-46 -74h32l-13 -64h-64z" />
    <glyph glyph-name="uniF8FF" unicode="&#xf8ff;" horiz-adv-x="512" 
d="M222 117v67h56v-67h-56zM225 234l-2 17q0 55 13 81t46 59q32 31 41 47.5t9 35.5q0 36 -22.5 60.5t-53.5 24.5t-53.5 -22t-28.5 -73l-50 8q7 71 44 104t91 33q53 0 88.5 -36t35.5 -95q0 -32 -12.5 -58.5t-50.5 -61.5q-37 -33 -43 -52t-6 -72h-46zM462 50v617h-412v-617
h412zM512 718v-718h-512v718h512z" />
    </font>
</defs>
</svg>
