<svg xmlns="http://www.w3.org/2000/svg">
<defs>
<font id="AmnestyTradeGothic-Bd2" horiz-adv-x="556" >
  <font-face 
    font-family="Amnesty Trade Gothic"
    font-weight="700"
    font-stretch="normal"
    units-per-em="1000"
    panose-1="2 11 8 3 4 3 3 2 0 4"
    ascent="722"
    descent="-278"
    x-height="520"
    cap-height="722"
    bbox="-167 -229 1000 977"
    underline-thickness="50"
    underline-position="-175"
    unicode-range="U+000D-FB02"
  />
<missing-glyph horiz-adv-x="512" 
d="M222 117v67h56v-67h-56zM225 234l-2 17q0 55 13 81t46 59q32 31 41 47.5t9 35.5q0 36 -22.5 60.5t-53.5 24.5t-53.5 -22t-28.5 -73l-50 8q7 71 44 104t91 33q53 0 88.5 -36t35.5 -95q0 -32 -12.5 -58.5t-50.5 -61.5q-37 -33 -43 -52t-6 -72h-46zM462 50v617h-412v-617
h412zM512 718v-718h-512v718h512z" />
    <glyph glyph-name="IJ" unicode="IJ" horiz-adv-x="759" 
d="M97 0v722h138v-722h-138zM405 158q18 -30 35 -41t40 -11q25 0 41 19t16 67v530h138v-527q0 -102 -49 -153.5t-146 -51.5q-57 0 -98.5 25.5t-71.5 71.5z" />
    <glyph glyph-name="ij" unicode="ij" horiz-adv-x="526" 
d="M77 616v116h124v-116h-124zM201 0h-124v520h124v-520zM338 616v116h124v-116h-124zM251 -81q10 -1 18.5 -2t22.5 -1q22 0 34 13t12 51v540h124v-560q0 -80 -34.5 -115t-111.5 -35q-35 0 -65 8v101z" />
    <glyph glyph-name="napostrophe" unicode="&#x22;n" horiz-adv-x="636" 
d="M144 0v520h114v-56q35 24 74.5 45t85.5 21q78 0 116 -47t38 -127v-356h-124v338q0 53 -16 72.5t-48 19.5q-41 0 -70.5 -18.5t-45.5 -36.5v-375h-124zM31 580h-60v142h138v-142l-64 -150h-65z" />
    <glyph glyph-name="fi" unicode="fi" 
d="M368 616v116h124v-116h-124zM492 0h-124v520h124v-520zM208 420v-420h-124v420h-72v100h71v64q0 42 8.5 70.5t26.5 45.5t46 24.5t66 7.5h82v-100h-34q-39 0 -54.5 -13t-15.5 -43v-56h105v-100h-105z" />
    <glyph glyph-name="fl" unicode="fl" 
d="M368 0v722h124v-722h-124zM208 420v-420h-124v420h-72v100h71v64q0 42 8.5 70.5t26.5 45.5t46 24.5t66 7.5h82v-100h-34q-39 0 -54.5 -13t-15.5 -43v-56h105v-100h-105z" />
    <glyph glyph-name=".notdef" horiz-adv-x="512" 
d="M222 117v67h56v-67h-56zM225 234l-2 17q0 55 13 81t46 59q32 31 41 47.5t9 35.5q0 36 -22.5 60.5t-53.5 24.5t-53.5 -22t-28.5 -73l-50 8q7 71 44 104t91 33q53 0 88.5 -36t35.5 -95q0 -32 -12.5 -58.5t-50.5 -61.5q-37 -33 -43 -52t-6 -72h-46zM462 50v617h-412v-617
h412zM512 718v-718h-512v718h512z" />
    <glyph glyph-name=".null" horiz-adv-x="0" 
 />
    <glyph glyph-name="nonmarkingreturn" unicode="&#xd;" horiz-adv-x="278" 
 />
    <glyph glyph-name="space" unicode=" " horiz-adv-x="305" 
 />
    <glyph glyph-name="exclam" unicode="!" horiz-adv-x="333" 
d="M97 0v142h138v-142h-138zM214 244h-96l-26 478h148z" />
    <glyph glyph-name="quotedbl" unicode="&#x22;" horiz-adv-x="333" 
d="M24 722h112v-272h-112v272zM197 722h112v-272h-112v272z" />
    <glyph glyph-name="numbersign" unicode="#" horiz-adv-x="611" 
d="M266 421l-17 -120h96l17 120h-96zM520 211h-93l-28 -211h-94l27 211h-96l-28 -211h-94l27 211h-80v90h93l17 120h-80v90h92l28 211h94l-27 -211h96l28 211h94l-27 -211h80v-90h-92l-17 -120h80v-90z" />
    <glyph glyph-name="dollar" unicode="$" horiz-adv-x="611" 
d="M263 622q-46 -3 -74 -24.5t-28 -70.5q0 -35 24 -52.5t78 -32.5v180zM337 100q19 0 38.5 4t35.5 14.5t25.5 28t9.5 44.5q0 44 -30 67.5t-79 36.5v-195zM263 317q-42 9 -81 26t-68.5 42t-47 58t-17.5 75q0 50 17.5 88t47 63.5t68.5 38.5t81 14v72h74v-72q58 -2 106.5 -26
t98.5 -73l-78 -77q-30 29 -58.5 49.5t-68.5 26.5v-200q53 -16 94 -36t69.5 -47t43 -62.5t14.5 -82.5q0 -50 -17.5 -85.5t-47.5 -59t-70.5 -35.5t-85.5 -14v-120h-74v120q-66 7 -122.5 35t-98.5 84l86 74q28 -42 59.5 -62.5t75.5 -30.5v217z" />
    <glyph glyph-name="percent" unicode="%" horiz-adv-x="889" 
d="M675 262q-17 0 -32 -7t-26 -18t-17.5 -26t-6.5 -31t6.5 -31t17.5 -26t26 -18t32 -7t32 7t26 18t17.5 26t6.5 31t-6.5 31t-17.5 26t-26 18t-32 7zM214 624q-17 0 -32 -7t-26 -18t-17.5 -26t-6.5 -31t6.5 -31t17.5 -26t26 -18t32 -7t32 7t26 18t17.5 26t6.5 31t-6.5 31
t-17.5 26t-26 18t-32 7zM612 732h85l-415 -742h-85zM675 360q38 0 71 -14.5t57 -39t38 -57t14 -69.5t-14 -69.5t-38 -57t-57 -39t-71 -14.5t-71 14.5t-57 39t-38 57t-14 69.5t14 69.5t38 57t57 39t71 14.5zM214 722q38 0 71 -14.5t57 -39t38 -57t14 -69.5t-14 -69.5t-38 -57
t-57 -39t-71 -14.5t-71 14.5t-57 39t-38 57t-14 69.5t14 69.5t38 57t57 39t71 14.5z" />
    <glyph glyph-name="ampersand" unicode="&#x26;" horiz-adv-x="667" 
d="M215 573q0 -32 10.5 -61.5t27.5 -55.5q16 12 31 25.5t27 28.5t19.5 31.5t7.5 34.5q0 30 -15.5 52t-46.5 22q-21 0 -41 -20t-20 -57zM170 206q0 -20 8.5 -38t23.5 -32t34 -22t40 -8q26 0 51 10t45 30q-44 34 -79.5 72.5t-64.5 82.5q-26 -21 -42 -40.5t-16 -54.5zM620 332
q-17 -46 -38 -90.5t-50 -86.5q23 -21 49 -34.5t53 -14.5v-116q-26 0 -46 2.5t-39.5 10.5t-41.5 23t-53 40q-37 -38 -83 -57t-100 -19q-51 0 -93 12.5t-73 38.5t-48 65.5t-17 93.5q0 33 9 60.5t25 50.5t38 42t48 37q-30 43 -45.5 82t-15.5 92q0 38 13.5 69t38 53t58 34
t73.5 12q36 0 67 -12.5t54.5 -34t37 -51t13.5 -63.5q0 -35 -12.5 -63.5t-32 -52.5t-44.5 -45t-50 -41q29 -40 61 -76.5t66 -66.5q22 32 38.5 66t29.5 70z" />
    <glyph glyph-name="quotesingle" unicode="'" horiz-adv-x="222" 
d="M55 722h112v-272h-112v272z" />
    <glyph glyph-name="parenleft" unicode="(" horiz-adv-x="333" 
d="M307 732q-73 -94 -109 -194t-36 -214t36 -214t109 -194h-121q-32 50 -57.5 96t-43 94t-26.5 101t-9 117t9 116.5t26.5 100.5t43 94.5t57.5 96.5h121z" />
    <glyph glyph-name="parenright" unicode=")" horiz-adv-x="333" 
d="M26 -84q73 94 109 194t36 214t-36 214t-109 194h121q32 -50 57.5 -96.5t43 -94.5t26.5 -100.5t9 -116.5t-9 -117t-26.5 -101t-43 -94t-57.5 -96h-121z" />
    <glyph glyph-name="asterisk" unicode="*" horiz-adv-x="500" 
d="M229 577l-31 145h99l-26 -146l5 -5l128 74l30 -90l-146 -23l107 -106l-74 -58l-67 133l-7 -1l-64 -131l-75 53l106 105l-2 6l-146 18l26 89l133 -68z" />
    <glyph glyph-name="plus" unicode="+" horiz-adv-x="600" 
d="M560 314v-108h-206v-206h-108v206h-206v108h206v206h108v-206h206z" />
    <glyph glyph-name="comma" unicode="," horiz-adv-x="305" 
d="M143 0h-60v142h138v-142l-64 -150h-65z" />
    <glyph glyph-name="hyphen" unicode="-" horiz-adv-x="333" 
d="M44 206v108h245v-108h-245z" />
    <glyph glyph-name="period" unicode="." horiz-adv-x="305" 
d="M83 0v142h138v-142h-138z" />
    <glyph glyph-name="slash" unicode="/" horiz-adv-x="278" 
d="M81 -10h-109l225 742h109z" />
    <glyph glyph-name="zero" unicode="0" horiz-adv-x="611" 
d="M172 361q0 -74 9.5 -124.5t27 -81t42 -44t54.5 -13.5t54.5 13.5t42 44t27 81t9.5 124.5t-9.5 124.5t-27 81t-42 44t-54.5 13.5t-54.5 -13.5t-42 -44t-27 -81t-9.5 -124.5zM42 361q0 78 14 145.5t45.5 117.5t81.5 79t122 29t122 -29t81.5 -79t45.5 -117.5t14 -145.5
t-14 -145.5t-45.5 -117.5t-81.5 -79t-122 -29t-122 29t-81.5 79t-45.5 117.5t-14 145.5z" />
    <glyph glyph-name="one" unicode="1" horiz-adv-x="611" 
d="M146 0v100h112v498h-128v84q50 2 91 14t66 36h101v-632h111v-100h-353z" />
    <glyph glyph-name="two" unicode="2" horiz-adv-x="611" 
d="M56 0v119q5 28 34 60t68.5 66t84 69.5t82 71t62.5 70.5t25 68q0 48 -28.5 74t-78.5 26q-54 0 -86 -32t-44 -82l-116 25q6 42 27 78t54 62.5t76 41.5t91 15t90.5 -13.5t74.5 -40t51 -65t19 -89.5q0 -66 -28 -115.5t-75.5 -95t-109.5 -93t-129 -108.5h342v-112h-486z" />
    <glyph glyph-name="three" unicode="3" horiz-adv-x="611" 
d="M194 437q40 0 75 3.5t61.5 14.5t42 31t15.5 52q0 39 -29.5 62.5t-74.5 23.5q-46 0 -78.5 -21.5t-59.5 -50.5l-86 78q53 56 108.5 79t111.5 23q49 0 92.5 -12t76 -35.5t51 -58t18.5 -80.5q0 -54 -28.5 -93.5t-80.5 -62.5q65 -20 99 -67.5t34 -115.5q0 -57 -22 -98
t-58 -67.5t-82 -39t-94 -12.5q-38 0 -75.5 9t-71.5 26.5t-61.5 43.5t-46.5 61l104 59q26 -45 63 -68t89 -23q24 0 46.5 7t40 21t28 34.5t10.5 46.5q0 44 -22 68.5t-54.5 36.5t-70.5 14.5t-71 2.5v108z" />
    <glyph glyph-name="four" unicode="4" horiz-adv-x="611" 
d="M349 266v322h-2l-223 -322h225zM24 293l308 429h141v-456h102v-100h-102v-166h-124v166h-325v127z" />
    <glyph glyph-name="five" unicode="5" horiz-adv-x="611" 
d="M115 722h390v-112h-292l-10 -164q9 9 20 16.5t27 13.5t37.5 9t50.5 3q49 0 88.5 -21t68 -55t44 -77t15.5 -87q0 -59 -17 -107t-50.5 -81.5t-83.5 -51.5t-115 -18q-86 0 -145 37t-89 98l108 56q17 -38 54 -59.5t74 -22.5q69 -2 101.5 39.5t32.5 109.5q0 28 -8.5 52
t-24.5 42t-39 28t-51 10q-38 0 -66 -17.5t-43 -44.5l-104 20z" />
    <glyph glyph-name="six" unicode="6" horiz-adv-x="611" 
d="M433 223q1 60 -31 95.5t-93 35.5q-87 0 -130 -82q0 -46 12 -79t31.5 -54t44.5 -31t51 -10q52 0 84 34t31 91zM481 574q-23 20 -53 35t-69 15q-37 0 -69.5 -17t-56.5 -47t-38.5 -70t-15.5 -86q35 31 73.5 44.5t88.5 13.5q48 0 88.5 -17t70 -48t46.5 -74t17 -95
q0 -57 -19.5 -101t-54 -74.5t-81 -46.5t-100.5 -16q-57 0 -104.5 20.5t-82 61t-53.5 102t-19 144.5q0 94 21 170.5t60.5 130.5t97 83.5t131.5 29.5q53 0 95 -14t84 -40z" />
    <glyph glyph-name="seven" unicode="7" horiz-adv-x="611" 
d="M58 722h495v-75l-297 -647h-143l292 610h-347v112z" />
    <glyph glyph-name="eight" unicode="8" horiz-adv-x="611" 
d="M304 632q-60 0 -85 -23t-25 -59q0 -25 12 -45t29.5 -34.5t36.5 -22.5t33 -8t33 10t36.5 25.5t29.5 35t12 39.5q0 36 -25 59t-87 23zM305 90q69 0 103.5 28.5t34.5 76.5q0 24 -18.5 47.5t-43 42t-49 30t-36.5 11.5t-33.5 -10t-43 -28t-37 -42t-15.5 -51q0 -48 34.5 -76.5
t103.5 -28.5zM546 552q0 -32 -8.5 -57t-24 -45t-37 -36t-48.5 -30q66 -29 105.5 -76t39.5 -122q0 -44 -20.5 -80.5t-56.5 -62t-85 -39.5t-106 -14t-106 14t-85 39.5t-56.5 62t-20.5 80.5q0 75 39.5 122t105.5 76q-27 14 -48.5 30t-37 36t-24 45t-8.5 57q0 41 17 74.5
t48.5 57t76 36t99.5 12.5t99.5 -12.5t76 -36t48.5 -57t17 -74.5z" />
    <glyph glyph-name="nine" unicode="9" horiz-adv-x="611" 
d="M166 499q-1 -60 31 -95.5t93 -35.5q87 0 130 82q0 46 -12 79t-31.5 54t-44.5 31t-51 10q-52 0 -84 -34t-31 -91zM118 148q23 -20 53 -35t69 -15q37 0 69.5 17t56.5 47t38.5 70t15.5 86q-35 -31 -73.5 -44.5t-88.5 -13.5q-48 0 -88.5 17t-70 48t-46.5 74t-17 95
q0 57 19.5 101t54 74.5t81 46.5t100.5 16q57 0 104.5 -20.5t82 -61t53.5 -102.5t19 -144q0 -95 -21 -171.5t-60.5 -130.5t-97.5 -83t-131 -29q-53 0 -95 14t-84 40z" />
    <glyph glyph-name="colon" unicode=":" horiz-adv-x="305" 
d="M83 0v142h138v-142h-138zM83 300v142h138v-142h-138z" />
    <glyph glyph-name="semicolon" unicode=";" horiz-adv-x="305" 
d="M83 300v142h138v-142h-138zM143 0h-60v142h138v-142l-64 -150h-65z" />
    <glyph glyph-name="less" unicode="&#x3c;" horiz-adv-x="600" 
d="M560 -8l-520 222v92l520 222v-111l-372 -157l372 -157v-111z" />
    <glyph glyph-name="equal" unicode="=" horiz-adv-x="600" 
d="M560 96h-520v108h520v-108zM560 316h-520v108h520v-108z" />
    <glyph glyph-name="greater" unicode="&#x3e;" horiz-adv-x="600" 
d="M40 103l372 157l-372 157v111l520 -222v-92l-520 -222v111z" />
    <glyph glyph-name="question" unicode="?" horiz-adv-x="444" 
d="M131 0v142h138v-142h-138zM143 243v55q0 43 20 80t44 71t44 65.5t20 63.5q0 23 -19 38.5t-44 15.5q-18 0 -32 -8t-24.5 -20.5t-17.5 -28t-9 -31.5l-115 32q19 75 72 115.5t134 40.5q37 0 69.5 -10.5t57.5 -30.5t39.5 -50t14.5 -69q0 -50 -22.5 -85.5t-49.5 -67.5
t-49.5 -64.5t-22.5 -74.5v-37h-110z" />
    <glyph glyph-name="at" unicode="@" horiz-adv-x="800" 
d="M381 249q24 0 43.5 10.5t33.5 27t21.5 38t7.5 44.5q0 36 -21 59t-56 23q-23 0 -42 -9.5t-32.5 -25.5t-21.5 -37.5t-8 -45.5q0 -36 20 -60t55 -24zM526 542h88l-49 -244q-2 -8 -4 -17.5t-2 -18.5q0 -22 14 -22q17 0 34.5 10.5t31.5 30.5t23 50.5t9 70.5q0 60 -19.5 106
t-54 77t-82 47t-102.5 16q-61 0 -110.5 -22t-84.5 -60.5t-54 -91t-19 -114.5q0 -66 21 -118.5t58.5 -90t90 -57.5t114.5 -20q57 0 106 19t86 51h90q-51 -75 -125 -114.5t-165 -39.5q-77 0 -145.5 27.5t-119.5 77t-81 117.5t-30 148q0 79 29.5 147t79.5 118t117.5 78.5
t144.5 28.5q64 0 125 -21.5t108.5 -60.5t76 -95t28.5 -125q0 -55 -14 -97.5t-36.5 -74.5t-50.5 -54t-55.5 -35.5t-51.5 -19.5t-39 -6q-21 0 -36.5 12.5t-16.5 38.5l-2 1q-18 -21 -44.5 -36.5t-52.5 -15.5q-32 0 -60.5 14t-50 38t-34.5 56t-13 67q0 45 14 87.5t40.5 75.5
t63.5 53t83 20q36 0 66 -15t51 -47z" />
    <glyph glyph-name="A" unicode="A" horiz-adv-x="611" 
d="M223 270h168l-81 314h-2zM221 723h172l205 -723h-137l-40 156h-228l-43 -156h-137z" />
    <glyph glyph-name="B" unicode="B" horiz-adv-x="667" 
d="M216 434h138q50 0 74.5 25t24.5 63t-24.5 63t-74.5 25h-138v-176zM216 112h138q60 0 87.5 26.5t27.5 78.5t-27.5 78.5t-87.5 26.5h-138v-210zM78 722h268q54 0 98 -9.5t75.5 -30.5t50 -55t21.5 -82q0 -57 -25 -99t-85 -65q35 -14 59 -30.5t39 -38t21.5 -51.5t6.5 -71
q0 -42 -15 -77t-47.5 -60t-82 -39t-118.5 -14h-266v722z" />
    <glyph glyph-name="C" unicode="C" horiz-adv-x="611" 
d="M447 512q-15 46 -47.5 75t-83.5 29q-69 0 -108.5 -63.5t-39.5 -191.5q-3 -255 152 -255q23 0 42.5 5t36 17t32 32.5t30.5 52.5l128 -34q-32 -94 -100.5 -141.5t-168.5 -47.5q-139 0 -214.5 96.5t-75.5 274.5t75.5 274.5t214.5 96.5q104 0 165 -46.5t87 -143.5z" />
    <glyph glyph-name="D" unicode="D" horiz-adv-x="667" 
d="M216 116h92q59 0 97 20t59.5 54t30 78.5t8.5 92.5t-8.5 92.5t-30 78.5t-59.5 54t-97 20h-92v-490zM78 722h239q72 0 131 -20.5t102 -64.5t67 -112t24 -164t-24 -164t-67 -112t-102 -64.5t-131 -20.5h-239v722z" />
    <glyph glyph-name="E" unicode="E" horiz-adv-x="611" 
d="M84 0v722h478v-116h-340v-172h247v-116h-247v-202h351v-116h-489z" />
    <glyph glyph-name="F" unicode="F" 
d="M78 0v722h460v-116h-322v-172h241v-116h-241v-318h-138z" />
    <glyph glyph-name="G" unicode="G" horiz-adv-x="667" 
d="M465 514q-25 54 -58 78t-87 24q-38 0 -66.5 -18.5t-47.5 -52.5t-28.5 -82.5t-9.5 -108.5q0 -114 40.5 -181t112.5 -67q68 0 108.5 40t42.5 103h-137v116h270v-365h-100v74q-44 -48 -87.5 -66t-100.5 -18q-74 0 -128 27.5t-89 76t-52.5 114t-17.5 142.5q0 69 14.5 137.5
t49.5 122.5t92.5 88t144.5 34q54 0 97 -14t75.5 -38.5t54.5 -58t35 -73.5z" />
    <glyph glyph-name="H" unicode="H" horiz-adv-x="722" 
d="M84 0v722h138v-288h278v288h138v-722h-138v310h-278v-310h-138z" />
    <glyph glyph-name="I" unicode="I" horiz-adv-x="333" 
d="M97 0v722h138v-722h-138z" />
    <glyph glyph-name="J" unicode="J" horiz-adv-x="444" 
d="M90 158q18 -30 35 -41t40 -11q25 0 41 19t16 67v530h138v-527q0 -102 -49 -153.5t-146 -51.5q-57 0 -98.5 25.5t-71.5 71.5z" />
    <glyph glyph-name="K" unicode="K" horiz-adv-x="667" 
d="M78 0v722h138v-321l241 321h159l-205 -271l238 -451h-153l-179 343l-101 -126v-217h-138z" />
    <glyph glyph-name="L" unicode="L" 
d="M78 0v722h138v-606h314v-116h-452z" />
    <glyph glyph-name="M" unicode="M" horiz-adv-x="833" 
d="M81 0v722h194l139 -504h2l140 504h196v-722h-120v568h-2l-162 -568h-105l-160 568h-2v-568h-120z" />
    <glyph glyph-name="N" unicode="N" horiz-adv-x="722" 
d="M81 0v722h144l284 -492h2v492h130v-722h-133l-295 514h-2v-514h-130z" />
    <glyph glyph-name="O" unicode="O" horiz-adv-x="667" 
d="M498 361q0 128 -40 191.5t-125 63.5t-125 -63.5t-40 -191.5q-2 -128 38.5 -191.5t126.5 -63.5q85 0 125 63.5t40 191.5zM636 361q0 -178 -77 -274.5t-226 -96.5t-226 96.5t-77 274.5t77 274.5t226 96.5t226 -96.5t77 -274.5z" />
    <glyph glyph-name="P" unicode="P" horiz-adv-x="611" 
d="M206 404h110q39 0 64.5 7t41 20.5t21.5 32.5t6 43t-6 43t-21.5 32.5t-41 20.5t-64.5 7h-110v-206zM68 0v722h264q58 0 105.5 -12.5t80.5 -39t51 -67t18 -96.5t-18 -97t-51 -67t-80.5 -38.5t-105.5 -12.5h-126v-292h-138z" />
    <glyph glyph-name="Q" unicode="Q" horiz-adv-x="667" 
d="M333 316q54 -5 87.5 -28.5t60.5 -63.5q9 27 13 61t4 76q0 128 -40 191.5t-125 63.5t-125 -63.5t-40 -191.5q-2 -128 38.5 -191.5t126.5 -63.5q51 0 86 24q-16 23 -36 40t-50 23v123zM655 -54q-35 0 -57 3.5t-39.5 12.5t-34 24.5t-38.5 39.5q-63 -36 -153 -36
q-149 0 -226 96.5t-77 274.5t77 274.5t226 96.5t226 -96.5t77 -274.5q0 -169 -72 -266q39 -32 91 -33v-116z" />
    <glyph glyph-name="R" unicode="R" horiz-adv-x="667" 
d="M216 406h102q81 0 111 25.5t30 76.5t-30 76.5t-87 25.5h-126v-204zM78 0v722h288q61 0 105 -16.5t71.5 -45.5t41 -68t13.5 -84q1 -67 -32.5 -117t-99.5 -69l159 -322h-153l-136 294h-119v-294h-138z" />
    <glyph glyph-name="S" unicode="S" horiz-adv-x="611" 
d="M419 530q-16 42 -48 68t-81 26q-45 0 -74 -19t-29 -61q0 -31 27.5 -51.5t69 -38t89.5 -35.5t89.5 -44.5t69 -65.5t27.5 -97q0 -112 -66 -167t-187 -55q-44 0 -86 12t-78 34t-63.5 54t-42.5 71l114 50q25 -51 60.5 -82t96.5 -31q26 0 48 5t38.5 16.5t26 30t9.5 44.5
q0 35 -27.5 58.5t-69 42.5t-89.5 37t-89.5 43.5t-69 62t-27.5 92.5q0 48 19 86t51 63.5t74 39t89 13.5q87 0 155 -42t100 -121z" />
    <glyph glyph-name="T" unicode="T" 
d="M536 723v-116h-189v-607h-138v607h-189v116h516z" />
    <glyph glyph-name="U" unicode="U" horiz-adv-x="722" 
d="M500 722h138v-452q0 -79 -22.5 -132.5t-61 -86.5t-88.5 -47t-105 -14t-105 14t-88.5 47t-61 86.5t-22.5 132.5v452h138v-458q0 -88 34.5 -123t104.5 -35t104.5 35t34.5 123v458z" />
    <glyph glyph-name="V" unicode="V" 
d="M10 722h136l128 -532h2l134 532h136l-191 -722h-154z" />
    <glyph glyph-name="W" unicode="W" horiz-adv-x="833" 
d="M20 722h129l91 -487h2l103 487h142l95 -487h2l99 487h129l-150 -722h-140l-105 514h-2l-104 -514h-140z" />
    <glyph glyph-name="X" unicode="X" 
d="M20 722h150l108 -223l108 223h150l-183 -352l195 -370h-150l-120 245l-120 -245h-150l195 370z" />
    <glyph glyph-name="Y" unicode="Y" 
d="M278 436l124 286h144l-199 -434v-288h-138v288l-199 434h144z" />
    <glyph glyph-name="Z" unicode="Z" 
d="M530 0h-514v117l337 489h-314v116h488v-110l-349 -496h352v-116z" />
    <glyph glyph-name="bracketleft" unicode="[" horiz-adv-x="333" 
d="M52 -74v796h233v-60h-125v-676h127v-60h-235z" />
    <glyph glyph-name="backslash" unicode="\" horiz-adv-x="278" 
d="M-28 732h109l225 -742h-109z" />
    <glyph glyph-name="bracketright" unicode="]" horiz-adv-x="333" 
d="M46 -74v60h127v676h-125v60h233v-796h-235z" />
    <glyph glyph-name="asciicircum" unicode="^" horiz-adv-x="600" 
d="M70 347l180 375h100l180 -375h-110l-120 263l-121 -263h-109z" />
    <glyph glyph-name="underscore" unicode="_" horiz-adv-x="500" 
d="M0 -125v50h500v-50h-500z" />
    <glyph glyph-name="grave" unicode="`" horiz-adv-x="278" 
d="M126 732l94 -146h-102l-146 146h154z" />
    <glyph glyph-name="a" unicode="a" horiz-adv-x="500" 
d="M316 249q-31 -6 -62 -13t-56 -18.5t-40.5 -29.5t-15.5 -45q0 -29 17 -45t43 -16q15 0 31 5.5t31 13.5t28.5 18t23.5 18v112zM329 0l-8 45q-38 -26 -75.5 -40.5t-86.5 -14.5q-35 0 -61.5 11.5t-44 31t-26.5 44t-9 51.5q0 89 73 137.5t225 66.5v44q0 30 -21.5 46t-54.5 16
q-44 0 -70 -19.5t-44 -44.5l-80 61q12 21 33 38.5t47.5 30.5t55.5 20t58 6q52 -1 90 -12t62.5 -35.5t36 -64.5t11.5 -98v-245q0 -20 2 -39t8 -36h-121z" />
    <glyph glyph-name="b" unicode="b" 
d="M188 136q10 -8 18.5 -16t19 -14.5t24.5 -11t34 -4.5q56 0 86 43.5t30 126.5t-30 126.5t-86 43.5q-30 0 -53.5 -13.5t-42.5 -30.5v-250zM64 722h124v-250h2q9 12 24 23t32.5 18.5t35.5 12t34 4.5q50 0 89 -22t65.5 -58t40 -82t13.5 -94q0 -61 -13 -113t-39 -90t-65 -59.5
t-91 -21.5q-42 0 -75 17t-66 49l-14 -56h-97v722z" />
    <glyph glyph-name="c" unicode="c" horiz-adv-x="500" 
d="M352 351q-15 33 -36 56t-66 23q-52 0 -77 -41t-25 -129t25.5 -129t80.5 -41q41 0 66 24t44 59l94 -53q-38 -70 -87 -100.5t-121 -29.5q-53 0 -95 19t-71 54t-44.5 85t-15.5 112t15.5 112t44.5 85t71 54t95 19q74 0 128.5 -36.5t76.5 -102.5z" />
    <glyph glyph-name="d" unicode="d" 
d="M368 386q-19 17 -42.5 30.5t-53.5 13.5q-56 0 -86 -43.5t-30 -126.5t30 -126.5t86 -43.5q20 0 34 4.5t24.5 11t19 14.5t18.5 16v250zM492 0h-105l-6 56q-33 -32 -66 -49t-75 -17q-52 0 -91 21.5t-65 59.5t-39 90t-13 113q0 48 13.5 94t40 82t65.5 58t89 22q16 0 34 -4.5
t35.5 -12t32.5 -18.5t24 -23h2v250h124v-722z" />
    <glyph glyph-name="e" unicode="e" horiz-adv-x="500" 
d="M348 324q-2 54 -28.5 84t-71.5 30t-71.5 -30t-28.5 -84h200zM148 240q2 -81 33 -115.5t75 -34.5q43 0 68 17.5t48 44.5l90 -56q-36 -56 -89.5 -81t-128.5 -25q-51 0 -91.5 19t-69 54t-44 85t-15.5 112t15.5 112t44.5 85t71 54t95 19q51 0 90.5 -19.5t66.5 -52.5t41 -76.5
t14 -90.5v-51h-314z" />
    <glyph glyph-name="f" unicode="f" horiz-adv-x="333" 
d="M208 420v-420h-124v420h-72v100h71v64q0 42 8.5 70.5t26.5 45.5t46 24.5t66 7.5h82v-100h-34q-39 0 -54.5 -13t-15.5 -43v-56h105v-100h-105z" />
    <glyph glyph-name="g" unicode="g" horiz-adv-x="500" 
d="M214 10q-26 0 -42.5 -6.5t-27 -15.5t-14.5 -19.5t-4 -18.5q0 -30 30 -44t108 -14q30 0 50.5 6.5t33 15.5t18 19t5.5 17q0 9 -7.5 19.5t-26 19.5t-48.5 15t-75 6zM322 352q0 36 -25 61t-60 25q-40 0 -65 -25t-25 -61t25 -61t65 -25q35 0 60 25t25 61zM488 446
q-22 0 -44 -1.5t-36 -10.5q12 -17 20 -39.5t8 -52.5q0 -37 -12.5 -67.5t-37 -53t-61 -35t-85.5 -12.5q-41 0 -69 -5t-28 -27q0 -21 25.5 -28t63.5 -9.5t82 -5t82 -15.5t63.5 -40.5t25.5 -79.5q0 -28 -14.5 -55.5t-44 -49.5t-75 -35.5t-107.5 -13.5q-105 0 -168.5 31
t-63.5 93q0 24 8.5 42t22 30t30 18t33.5 6v2q-9 6 -22 12t-25.5 15t-21 22.5t-8.5 34.5q0 19 9.5 35t22.5 28.5t26.5 20.5t22.5 11q-32 26 -54.5 58t-22.5 80q0 34 13 66.5t39 58t64 41t89 15.5q33 0 68.5 -12.5t59.5 -33.5q18 24 47.5 36t74.5 10v-84z" />
    <glyph glyph-name="h" unicode="h" 
d="M64 0v722h124v-258q29 24 66.5 45t83.5 21q78 0 116 -47t38 -127v-356h-124v338q0 53 -16 72.5t-48 19.5q-41 0 -70.5 -18.5t-45.5 -36.5v-375h-124z" />
    <glyph glyph-name="i" unicode="i" horiz-adv-x="278" 
d="M77 616v116h124v-116h-124zM201 0h-124v520h124v-520z" />
    <glyph glyph-name="j" unicode="j" horiz-adv-x="278" 
d="M90 616v116h124v-116h-124zM3 -81q10 -1 18.5 -2t22.5 -1q22 0 34 13t12 51v540h124v-560q0 -80 -34.5 -115t-111.5 -35q-35 0 -65 8v101z" />
    <glyph glyph-name="k" unicode="k" horiz-adv-x="500" 
d="M64 0v722h124v-403h4l153 201h142l-153 -194l164 -326h-132l-115 233l-63 -73v-160h-124z" />
    <glyph glyph-name="l" unicode="l" horiz-adv-x="278" 
d="M77 0v722h124v-722h-124z" />
    <glyph glyph-name="m" unicode="m" horiz-adv-x="833" 
d="M64 0v520h113v-56q35 32 69 49t87 17q41 0 76 -19t52 -57q16 16 34 30t39.5 24t47.5 16t58 6q20 0 42.5 -7t41.5 -24.5t31.5 -48t12.5 -76.5v-374h-124v363q0 32 -14 48.5t-48 18.5q-24 0 -53 -18t-51 -38v-374h-124v363q0 32 -14 48.5t-48 18.5q-24 0 -53 -18t-51 -38
v-374h-124z" />
    <glyph glyph-name="n" unicode="n" 
d="M64 0v520h114v-56q35 24 74.5 45t85.5 21q78 0 116 -47t38 -127v-356h-124v338q0 53 -16 72.5t-48 19.5q-41 0 -70.5 -18.5t-45.5 -36.5v-375h-124z" />
    <glyph glyph-name="o" unicode="o" horiz-adv-x="500" 
d="M352 260q0 88 -25 129t-77 41t-77 -41t-25 -129t25 -129t77 -41t77 41t25 129zM24 260q0 62 15.5 112t44.5 85t71 54t95 19t95 -19t71 -54t44.5 -85t15.5 -112t-15.5 -112t-44.5 -85t-71 -54t-95 -19t-95 19t-71 54t-44.5 85t-15.5 112z" />
    <glyph glyph-name="p" unicode="p" 
d="M188 134q19 -17 42.5 -30.5t53.5 -13.5q56 0 86 43.5t30 126.5t-30 126.5t-86 43.5q-20 0 -34 -4.5t-24.5 -11t-19 -15t-18.5 -15.5v-250zM64 520h119v-48q27 26 59 42t74 16q52 0 91 -21.5t65 -59.5t39 -90t13 -113q0 -48 -13.5 -94t-40 -82t-65.5 -58t-89 -22
q-16 0 -34 4.5t-35.5 12t-32.5 18.5t-24 23h-2v-238h-124v710z" />
    <glyph glyph-name="q" unicode="q" 
d="M368 384q-10 7 -18.5 15.5t-19 15t-24.5 11t-34 4.5q-56 0 -86 -43.5t-30 -126.5t30 -126.5t86 -43.5q30 0 53.5 13.5t42.5 30.5v250zM492 -190h-124v238h-2q-9 -12 -24 -23t-32.5 -18.5t-35.5 -12t-34 -4.5q-50 0 -89 22t-65.5 58t-40 82t-13.5 94q0 61 13 113t39 90
t65 59.5t91 21.5q42 0 75 -17t66 -49l14 56h97v-710z" />
    <glyph glyph-name="r" unicode="r" horiz-adv-x="333" 
d="M56 0v520h114v-89h2q23 47 56.5 72t89.5 27v-131q-5 1 -10 1h-12q-23 0 -44 -11.5t-37 -26t-25.5 -28t-9.5 -18.5v-316h-124z" />
    <glyph glyph-name="s" unicode="s" horiz-adv-x="444" 
d="M317 383q-19 20 -43.5 37.5t-53.5 17.5q-36 0 -53 -14t-17 -37q0 -22 19.5 -35.5t48 -24.5t62.5 -22.5t62.5 -31t48 -50t19.5 -77.5q0 -41 -14.5 -70t-40 -48.5t-60.5 -28.5t-76 -9q-63 0 -112.5 27t-84.5 78l83 62q22 -30 51.5 -52.5t69.5 -22.5q33 0 53.5 16.5
t20.5 42.5q0 22 -19.5 36t-48 25t-62.5 23.5t-62.5 31.5t-48 48t-19.5 74q0 36 14 64.5t38 47.5t55 29t65 10q52 0 100.5 -19.5t82.5 -59.5z" />
    <glyph glyph-name="t" unicode="t" horiz-adv-x="333" 
d="M84 520v172h124v-172h102v-100h-102v-294q0 -21 11 -28.5t34 -7.5q14 0 28.5 3.5t28.5 6.5v-102q-26 -3 -49 -5.5t-49 -2.5q-69 0 -98.5 32t-29.5 88v310h-72v100h72z" />
    <glyph glyph-name="u" unicode="u" 
d="M492 520v-520h-114v56q-35 -24 -74.5 -45t-85.5 -21q-78 0 -116 47t-38 127v356h124v-338q0 -53 16 -72.5t48 -19.5q41 0 70.5 18.5t45.5 36.5v375h124z" />
    <glyph glyph-name="v" unicode="v" horiz-adv-x="444" 
d="M10 520h124l86 -352h2l88 352h124l-149 -520h-130z" />
    <glyph glyph-name="w" unicode="w" horiz-adv-x="667" 
d="M10 520h118l71 -324h2l75 324h115l72 -324h2l74 324h118l-134 -520h-112l-77 324h-2l-76 -324h-112z" />
    <glyph glyph-name="x" unicode="x" horiz-adv-x="444" 
d="M157 270l-147 250h137l73 -144l74 144h134l-146 -250l158 -270h-132l-87 162l-84 -162h-133z" />
    <glyph glyph-name="y" unicode="y" horiz-adv-x="444" 
d="M10 -84q14 -3 26 -3.5t26 -0.5q32 0 51.5 9.5t30.5 31.5q9 19 14.5 32t5.5 29q0 14 -5.5 30t-10.5 32l-139 444h125l86 -320h2l89 320h124l-164 -521q-21 -56 -40.5 -92.5t-42.5 -58t-51.5 -30t-66.5 -8.5q-23 0 -36 1t-24 3v102z" />
    <glyph glyph-name="z" unicode="z" horiz-adv-x="444" 
d="M39 520h385v-88l-250 -332h252v-100h-408v88l251 332h-230v100z" />
    <glyph glyph-name="braceleft" unicode="{" horiz-adv-x="333" 
d="M8 354q30 0 50 17.5t20 47.5v194q0 62 36 90.5t92 28.5h71v-60h-49q-21 0 -31.5 -15t-10.5 -35v-190q0 -50 -17.5 -73.5t-58.5 -33.5v-2q41 -10 58.5 -33.5t17.5 -73.5v-190q0 -20 10.5 -35t31.5 -15h49v-60h-71q-56 0 -92 28.5t-36 90.5v194q0 30 -20 47.5t-50 17.5v60z
" />
    <glyph glyph-name="bar" unicode="|" horiz-adv-x="222" 
d="M57 732h108v-742h-108v742z" />
    <glyph glyph-name="braceright" unicode="}" horiz-adv-x="333" 
d="M325 294q-30 0 -50 -17.5t-20 -47.5v-194q0 -62 -36 -90.5t-92 -28.5h-71v60h49q21 0 31.5 15t10.5 35v190q0 50 17.5 73.5t58.5 33.5v2q-41 10 -58.5 33.5t-17.5 73.5v190q0 20 -10.5 35t-31.5 15h-49v60h71q56 0 92 -28.5t36 -90.5v-194q0 -30 20 -47.5t50 -17.5v-60z
" />
    <glyph glyph-name="asciitilde" unicode="~" horiz-adv-x="600" 
d="M530 260q-11 -16 -23 -31.5t-27.5 -28t-35 -20t-44.5 -7.5q-35 0 -62 15t-56 30q-20 10 -41.5 17t-48.5 7q-18 0 -31.5 -6.5t-24 -16.5t-18 -23t-13.5 -26l-35 90q8 16 19 31.5t26 27.5t34.5 19.5t44.5 7.5q28 0 57.5 -10.5t57.5 -23.5t53.5 -23.5t44.5 -10.5
q15 0 27.5 6.5t23 16.5t19.5 23l18 26z" />
    <glyph glyph-name="uni00A0" unicode="&#xa0;" horiz-adv-x="305" 
 />
    <glyph glyph-name="exclamdown" unicode="&#xa1;" horiz-adv-x="333" 
d="M236 542v-142h-138v142h138zM119 298h96l26 -478h-148z" />
    <glyph glyph-name="cent" unicode="&#xa2;" horiz-adv-x="611" 
d="M339 426q-12 4 -31 4q-52 0 -82 -41t-30 -129q0 -48 9 -81t26 -53zM279 95q8 -3 16 -4t17 -1q41 0 66 24t44 59l94 -53q-38 -70 -87 -100.5t-121 -29.5q-32 0 -64 8l-45 -123h-58l52 145q-54 31 -82.5 93t-28.5 147q0 62 15.5 112t44.5 85t71 54t95 19q34 0 66 -8l38 106
h58l-46 -128q64 -35 89 -109l-103 -40q-10 23 -24 43z" />
    <glyph glyph-name="sterling" unicode="&#xa3;" horiz-adv-x="611" 
d="M275 314q0 -17 -1.5 -39t-4.5 -45.5t-8.5 -45t-13.5 -36.5q29 -17 57 -29.5t62 -12.5q26 0 41 10t22.5 26t10 36t4.5 40h120q0 -47 -10 -88t-31 -72.5t-52.5 -49.5t-74.5 -18q-36 0 -63 4t-50.5 11.5t-45 19.5t-45.5 27q-23 -27 -59 -45.5t-81 -16.5v124q28 2 46 16.5
t28.5 35t14.5 44.5t4 46q0 15 -1 29.5t-3 28.5h-95v94h81q-5 29 -9 59.5t-4 65.5q0 97 55.5 148t164.5 51q100 0 156.5 -57t56.5 -156h-120q-5 47 -26 76t-74 29q-24 0 -40 -9t-25.5 -23.5t-13.5 -33t-4 -38.5q0 -32 4.5 -57.5t12.5 -54.5h130v-94h-116z" />
    <glyph glyph-name="currency" unicode="&#xa4;" horiz-adv-x="611" 
d="M165 361q0 -32 10.5 -59t29 -47t44.5 -31t56 -11t56 11t44.5 31t29 47t10.5 59t-10.5 59t-29 47t-44.5 31t-56 11t-56 -11t-44.5 -31t-29 -47t-10.5 -59zM513 506q22 -32 34 -68.5t12 -76.5t-12 -76.5t-34 -68.5l52 -52l-62 -64l-55 51q-30 -20 -66.5 -32t-76.5 -12
t-76.5 12t-66.5 32l-55 -51l-62 64l52 52q-22 32 -34 68.5t-12 76.5t12 76.5t34 68.5l-52 52l62 64l55 -51q30 20 66.5 32t76.5 12t76.5 -12t66.5 -32l55 51l62 -64z" />
    <glyph glyph-name="yen" unicode="&#xa5;" horiz-adv-x="611" 
d="M362 0h-114v202h-180v94h176l-34 68h-142v94h95l-135 264h124l153 -310l154 310h124l-135 -264h94v-94h-141l-35 -68h176v-94h-180v-202z" />
    <glyph glyph-name="brokenbar" unicode="&#xa6;" horiz-adv-x="222" 
d="M57 732h108v-282h-108v282zM57 272h108v-282h-108v282z" />
    <glyph glyph-name="section" unicode="&#xa7;" horiz-adv-x="500" 
d="M144 398q0 -13 15.5 -34t51.5 -59q73 -76 101 -76q20 0 32 11t12 29t-18.5 40t-52.5 58q-20 22 -35 35.5t-26.5 21.5t-20 11t-16.5 3q-17 0 -30 -11.5t-13 -28.5zM337 597q-16 19 -36 36t-46 17q-20 0 -34.5 -12t-14.5 -30q0 -20 18 -43t45 -49t59 -54t59 -58.5t45 -62.5
t18 -66q0 -17 -5.5 -34.5t-18 -33.5t-33 -28.5t-51.5 -17.5q23 -24 37 -53.5t14 -63.5q0 -31 -11.5 -55t-31.5 -40t-46 -24.5t-55 -8.5q-50 0 -89.5 24.5t-70.5 60.5l68 53q14 -22 35 -39t48 -17q26 0 42.5 11.5t16.5 38.5q0 23 -18.5 48.5t-46 53t-60 56.5t-60 59t-46 61
t-18.5 62q0 49 30.5 81t78.5 35q-23 27 -35 52t-12 60q0 54 37.5 85t96.5 31q27 0 47.5 -4t39 -13t35.5 -24.5t37 -38.5z" />
    <glyph glyph-name="dieresis" unicode="&#xa8;" horiz-adv-x="278" 
d="M294 712v-116h-120v116h120zM104 712v-116h-120v116h120z" />
    <glyph glyph-name="copyright" unicode="&#xa9;" horiz-adv-x="800" 
d="M594 305q-6 -38 -22.5 -67.5t-40.5 -49.5t-54 -30t-62 -10q-47 0 -85.5 16.5t-66 45.5t-42.5 68.5t-15 85.5t14.5 86t41 68.5t65 45t86.5 16.5q67 0 116 -38.5t61 -113.5h-86q-7 35 -33 49.5t-58 14.5q-49 0 -75 -34t-26 -92q0 -56 28 -93t75 -37q37 0 61 16.5t28 52.5
h90zM684 361q0 66 -22.5 121t-61.5 94.5t-90.5 61.5t-109.5 22q-59 0 -111 -22t-90.5 -61.5t-60.5 -94.5t-22 -121t22 -121t60.5 -94.5t90.5 -61.5t111 -22q58 0 109.5 22t90.5 61.5t61.5 94.5t22.5 121zM400 -10q-75 0 -144 25t-122 73t-84.5 117t-31.5 156t31.5 156
t84.5 117t122 73t144 25t144 -25t122 -73t84.5 -117t31.5 -156t-31.5 -156t-84.5 -117t-122 -73t-144 -25z" />
    <glyph glyph-name="ordfeminine" unicode="&#xaa;" horiz-adv-x="300" 
d="M194 563q-18 -3 -36.5 -7.5t-33 -11t-23.5 -17.5t-9 -27q0 -28 33 -28q20 0 40.5 7t28.5 17v67zM203 414l-5 28q-21 -16 -45 -25t-56 -9q-46 0 -68.5 25.5t-22.5 57.5q0 54 46.5 82.5t141.5 39.5v23q0 32 -44 32q-29 0 -45.5 -8t-28.5 -22l-52 37q8 12 21.5 23t31 18.5
t36.5 11.5t37 4q34 -1 58.5 -7.5t40.5 -21t23.5 -38.5t7.5 -59v-147q0 -12 1 -23t6 -22h-84z" />
    <glyph glyph-name="guillemotleft" unicode="&#xab;" 
d="M384 420h112l-123 -163l123 -157h-112l-120 157zM180 420h112l-123 -163l123 -157h-112l-120 157z" />
    <glyph glyph-name="logicalnot" unicode="&#xac;" horiz-adv-x="600" 
d="M452 316h-412v108h520v-328h-108v220z" />
    <glyph glyph-name="uni00AD" unicode="&#xad;" horiz-adv-x="333" 
d="M44 206v108h245v-108h-245z" />
    <glyph glyph-name="registered" unicode="&#xae;" horiz-adv-x="800" 
d="M337 397h77q36 0 51 15.5t15 38.5q0 28 -19 37t-51 9h-73v-100zM337 158h-88v407h153q80 0 123 -26.5t43 -96.5q0 -57 -30 -81t-82 -27l106 -176h-89l-95 171h-41v-171zM684 361q0 66 -22.5 121t-61.5 94.5t-90.5 61.5t-109.5 22q-59 0 -111 -22t-90.5 -61.5t-60.5 -94.5
t-22 -121t22 -121t60.5 -94.5t90.5 -61.5t111 -22q58 0 109.5 22t90.5 61.5t61.5 94.5t22.5 121zM400 -10q-75 0 -144 25t-122 73t-84.5 117t-31.5 156t31.5 156t84.5 117t122 73t144 25t144 -25t122 -73t84.5 -117t31.5 -156t-31.5 -156t-84.5 -117t-122 -73t-144 -25z" />
    <glyph glyph-name="macron" unicode="&#xaf;" horiz-adv-x="278" 
d="M-34 618v74h346v-74h-346z" />
    <glyph glyph-name="degree" unicode="&#xb0;" horiz-adv-x="400" 
d="M121 589q0 -33 23 -58t56 -25t56 25t23 58t-23 58t-56 25t-56 -25t-23 -58zM200 446q-30 0 -56 11t-45.5 30.5t-30.5 45.5t-11 56t11 56t30.5 45.5t45.5 30.5t56 11t56 -11t45.5 -30.5t30.5 -45.5t11 -56t-11 -56t-30.5 -45.5t-45.5 -30.5t-56 -11z" />
    <glyph glyph-name="plusminus" unicode="&#xb1;" horiz-adv-x="600" 
d="M40 108h520v-108h-520v108zM246 520h108v-132h206v-108h-206v-133h-108v133h-206v108h206v132z" />
    <glyph glyph-name="twosuperior" unicode="&#xb2;" horiz-adv-x="366" 
d="M20 292v72q3 17 21.5 36t44 39.5t54 41.5t52.5 41.5t40 40.5t16 38q0 59 -66 59q-35 0 -56 -19t-29 -48l-75 15q4 27 17.5 49.5t35 39t49 26t59.5 9.5q31 0 59 -8t49 -24t33 -39.5t12 -53.5q0 -39 -18.5 -69t-48.5 -57t-69 -54.5t-80 -62.5h216v-72h-316z" />
    <glyph glyph-name="threesuperior" unicode="&#xb3;" horiz-adv-x="366" 
d="M120 556q25 0 47 2t38 8t25.5 17t9.5 28q0 21 -17 34.5t-46 14.5q-30 -1 -51.5 -13.5t-38.5 -29.5l-56 48q35 38 69.5 52.5t79.5 14.5q65 0 106.5 -28t41.5 -83q0 -67 -70 -93v-2q42 -11 64 -39.5t22 -69.5q0 -34 -14.5 -58.5t-37.5 -40.5t-53 -24t-61 -8
q-50 0 -95.5 22.5t-70.5 68.5l68 35q17 -26 41 -40t58 -14q31 0 54 16.5t23 48.5q0 24 -13.5 37.5t-34 20t-44 8t-44.5 1.5v66z" />
    <glyph glyph-name="acute" unicode="&#xb4;" horiz-adv-x="278" 
d="M306 732l-146 -146h-102l94 146h154z" />
    <glyph glyph-name="mu" unicode="&#xb5;" 
d="M492 520v-520h-114v56q-35 -24 -74.5 -45t-85.5 -21q-8 0 -15.5 0.5t-14.5 1.5v-182h-124v710h124v-338q0 -53 16 -72.5t48 -19.5q41 0 70.5 18.5t45.5 36.5v375h124z" />
    <glyph glyph-name="paragraph" unicode="&#xb6;" horiz-adv-x="620" 
d="M220 369q-44 0 -80.5 12t-62.5 34.5t-40.5 54.5t-14.5 72q0 53 18 88t47.5 55.5t67.5 28.5t77 8h354v-84h-73v-706h-102v706h-89v-706h-102v437z" />
    <glyph glyph-name="periodcentered" unicode="&#xb7;" horiz-adv-x="305" 
d="M228 260q0 -32 -23 -54t-55 -22t-53 22t-21 54q0 31 21.5 53.5t52.5 22.5q32 0 55 -22t23 -54z" />
    <glyph glyph-name="cedilla" unicode="&#xb8;" horiz-adv-x="278" 
d="M39 -161q13 -5 35 -10.5t43 -5.5q25 0 38.5 8t13.5 34q0 20 -13 25.5t-30 5.5q-11 0 -22.5 -2t-19.5 -4l-20 20l59 90h53l-43 -63q20 5 36 5q34 0 61 -18t27 -58q0 -25 -12 -43t-30.5 -29.5t-41 -17t-43.5 -5.5q-29 0 -56 7.5t-53 18.5z" />
    <glyph glyph-name="onesuperior" unicode="&#xb9;" horiz-adv-x="366" 
d="M75 292v66h67v288h-77v56q32 2 58.5 9t43.5 21h67v-374h70v-66h-229z" />
    <glyph glyph-name="ordmasculine" unicode="&#xba;" horiz-adv-x="300" 
d="M210 570q0 98 -60 98q-61 0 -61 -98t61 -98q60 0 60 98zM3 570q0 75 39 118.5t108 43.5t107.5 -43.5t38.5 -118.5t-38.5 -118.5t-107.5 -43.5t-108 43.5t-39 118.5z" />
    <glyph glyph-name="guillemotright" unicode="&#xbb;" 
d="M172 100h-112l123 163l-123 157h112l120 -157zM376 100h-112l123 163l-123 157h112l120 -157z" />
    <glyph glyph-name="onequarter" unicode="&#xbc;" horiz-adv-x="916" 
d="M733 342h-2l-125 -176h127v176zM85 292v66h67v288h-77v56q32 2 58.5 9t43.5 21h67v-374h70v-66h-229zM624 732h88l-412 -742h-89zM530 184l192 250h103v-268h63v-66h-63v-100h-92v100h-203v84z" />
    <glyph glyph-name="onehalf" unicode="&#xbd;" horiz-adv-x="916" 
d="M85 292v66h67v288h-77v56q32 2 58.5 9t43.5 21h67v-374h70v-66h-229zM608 732h88l-412 -742h-89zM532 0v72q3 17 21.5 36t44 39.5t54 41.5t52.5 41.5t40 40.5t16 38q0 59 -66 59q-35 0 -56 -19t-29 -48l-75 15q4 27 17.5 49.5t35 39t49 26t59.5 9.5q31 0 59 -8t49 -24
t33 -39.5t12 -53.5q0 -39 -18.5 -69t-48.5 -57t-69 -54.5t-80 -62.5h216v-72h-316z" />
    <glyph glyph-name="threequarters" unicode="&#xbe;" horiz-adv-x="916" 
d="M733 342h-2l-125 -176h127v176zM638 732h88l-412 -742h-89zM136 556q25 0 47 2t38 8t25.5 17t9.5 28q0 21 -17 34.5t-46 14.5q-30 -1 -51.5 -13.5t-38.5 -29.5l-56 48q35 38 69.5 52.5t79.5 14.5q65 0 106.5 -28t41.5 -83q0 -67 -70 -93v-2q42 -11 64 -39.5t22 -69.5
q0 -34 -14.5 -58.5t-37.5 -40.5t-53 -24t-61 -8q-50 0 -95.5 22.5t-70.5 68.5l68 35q17 -26 41 -40t58 -14q31 0 54 16.5t23 48.5q0 24 -13.5 37.5t-34 20t-44 8t-44.5 1.5v66zM530 184l192 250h103v-268h63v-66h-63v-100h-92v100h-203v84z" />
    <glyph glyph-name="questiondown" unicode="&#xbf;" horiz-adv-x="444" 
d="M313 542v-142h-138v142h138zM301 299v-55q0 -43 -20 -80t-44 -71t-44 -65.5t-20 -63.5q0 -23 19 -38.5t44 -15.5q18 0 32 8t24.5 20.5t17.5 28t9 31.5l115 -32q-19 -75 -72 -115.5t-134 -40.5q-37 0 -70 10.5t-57.5 30.5t-39 50t-14.5 69q0 50 22.5 85.5t49.5 67.5
t49.5 64.5t22.5 74.5v37h110z" />
    <glyph glyph-name="Agrave" unicode="&#xc0;" horiz-adv-x="611" 
d="M223 270h168l-81 314h-2zM221 723h172l205 -723h-137l-40 156h-228l-43 -156h-137zM293 908l94 -146h-102l-146 146h154z" />
    <glyph glyph-name="Aacute" unicode="&#xc1;" horiz-adv-x="611" 
d="M223 270h168l-81 314h-2zM221 723h172l205 -723h-137l-40 156h-228l-43 -156h-137zM473 907l-146 -146h-102l94 146h154z" />
    <glyph glyph-name="Acircumflex" unicode="&#xc2;" horiz-adv-x="611" 
d="M223 270h168l-81 314h-2zM221 723h172l205 -723h-137l-40 156h-228l-43 -156h-137zM367 908l115 -146h-113l-63 82l-64 -82h-112l113 146h124z" />
    <glyph glyph-name="Atilde" unicode="&#xc3;" horiz-adv-x="611" 
d="M223 270h168l-81 314h-2zM221 723h172l205 -723h-137l-40 156h-228l-43 -156h-137zM489 898q-5 -23 -13 -45t-21 -39t-31.5 -27.5t-45.5 -10.5q-19 0 -38.5 5.5t-38.5 12t-37 12t-33 5.5q-20 0 -30 -12t-16 -29h-62q3 23 11.5 45t23 39t34 27.5t45.5 10.5q20 0 40 -6
t38 -12.5t34 -12.5t28 -6q18 0 30.5 13t16.5 30h65z" />
    <glyph glyph-name="Adieresis" unicode="&#xc4;" horiz-adv-x="611" 
d="M223 270h168l-81 314h-2zM221 723h172l205 -723h-137l-40 156h-228l-43 -156h-137zM461 887v-116h-120v116h120zM271 887v-116h-120v116h120z" />
    <glyph glyph-name="Aring" unicode="&#xc5;" horiz-adv-x="611" 
d="M223 270h168l-81 314h-2zM221 723h172l205 -723h-137l-40 156h-228l-43 -156h-137zM252 869q0 -23 15.5 -38.5t38.5 -15.5t38.5 15.5t15.5 38.5t-15.5 38.5t-38.5 15.5t-38.5 -15.5t-15.5 -38.5zM198 869q0 22 8.5 42t23 34.5t34 23t42.5 8.5q22 0 42 -8.5t34.5 -23
t23 -34.5t8.5 -42q0 -23 -8.5 -42.5t-23 -34t-34.5 -23t-42 -8.5q-23 0 -42.5 8.5t-34 23t-23 34t-8.5 42.5z" />
    <glyph glyph-name="AE" unicode="&#xc6;" horiz-adv-x="944" 
d="M454 285v337h-2l-161 -337h163zM7 0l363 722h525v-116h-303v-172h210v-116h-210v-202h314v-116h-452v169h-220l-80 -169h-147z" />
    <glyph glyph-name="Ccedilla" unicode="&#xc7;" horiz-adv-x="611" 
d="M215 -161q13 -5 35 -10.5t43 -5.5q25 0 38.5 8t13.5 34q0 20 -13 25.5t-30 5.5q-11 0 -22.5 -2t-19.5 -4l-20 20l53 81q-127 9 -195 105t-68 265q0 178 75.5 274.5t214.5 96.5q104 0 165 -46.5t87 -143.5l-125 -30q-15 46 -47.5 75t-83.5 29q-69 0 -108.5 -63.5
t-39.5 -191.5q-3 -255 152 -255q23 0 42.5 5t36 17t32 32.5t30.5 52.5l128 -34q-30 -88 -92 -135t-152 -53l-36 -54q20 5 36 5q34 0 61 -18t27 -58q0 -25 -12 -43t-30.5 -29.5t-41 -17t-43.5 -5.5q-29 0 -56 7.5t-53 18.5z" />
    <glyph glyph-name="Egrave" unicode="&#xc8;" horiz-adv-x="611" 
d="M84 0v722h478v-116h-340v-172h247v-116h-247v-202h351v-116h-489zM312 908l94 -146h-102l-146 146h154z" />
    <glyph glyph-name="Eacute" unicode="&#xc9;" horiz-adv-x="611" 
d="M84 0v722h478v-116h-340v-172h247v-116h-247v-202h351v-116h-489zM492 908l-146 -146h-102l94 146h154z" />
    <glyph glyph-name="Ecircumflex" unicode="&#xca;" horiz-adv-x="611" 
d="M84 0v722h478v-116h-340v-172h247v-116h-247v-202h351v-116h-489zM386 908l115 -146h-113l-63 82l-64 -82h-112l113 146h124z" />
    <glyph glyph-name="Edieresis" unicode="&#xcb;" horiz-adv-x="611" 
d="M84 0v722h478v-116h-340v-172h247v-116h-247v-202h351v-116h-489zM480 888v-116h-120v116h120zM290 888v-116h-120v116h120z" />
    <glyph glyph-name="Igrave" unicode="&#xcc;" horiz-adv-x="333" 
d="M97 0v722h138v-722h-138zM151 908l94 -146h-102l-146 146h154z" />
    <glyph glyph-name="Iacute" unicode="&#xcd;" horiz-adv-x="333" 
d="M97 0v722h138v-722h-138zM331 908l-146 -146h-102l94 146h154z" />
    <glyph glyph-name="Icircumflex" unicode="&#xce;" horiz-adv-x="333" 
d="M97 0v722h138v-722h-138zM225 908l115 -146h-113l-63 82l-64 -82h-112l113 146h124z" />
    <glyph glyph-name="Idieresis" unicode="&#xcf;" horiz-adv-x="333" 
d="M97 0v722h138v-722h-138zM319 888v-116h-120v116h120zM129 888v-116h-120v116h120z" />
    <glyph glyph-name="Eth" unicode="&#xd0;" horiz-adv-x="667" 
d="M216 434h149v-124h-149v-194h92q59 0 97 20t59.5 54t30 78.5t8.5 92.5t-8.5 92.5t-30 78.5t-59.5 54t-97 20h-92v-172zM78 310h-67v124h67v288h239q72 0 131 -20.5t102 -64.5t67 -112t24 -164t-24 -164t-67 -112t-102 -64.5t-131 -20.5h-239v310z" />
    <glyph glyph-name="Ntilde" unicode="&#xd1;" horiz-adv-x="722" 
d="M81 0v722h144l284 -492h2v492h130v-722h-133l-295 514h-2v-514h-130zM544 898q-5 -23 -13 -45t-21 -39t-31.5 -27.5t-45.5 -10.5q-19 0 -38.5 5.5t-38.5 12t-37 12t-33 5.5q-20 0 -30 -12t-16 -29h-62q3 23 11.5 45t23 39t34 27.5t45.5 10.5q20 0 40 -6t38 -12.5
t34 -12.5t28 -6q18 0 30.5 13t16.5 30h65z" />
    <glyph glyph-name="Ograve" unicode="&#xd2;" horiz-adv-x="667" 
d="M498 361q0 128 -40 191.5t-125 63.5t-125 -63.5t-40 -191.5q-2 -128 38.5 -191.5t126.5 -63.5q85 0 125 63.5t40 191.5zM636 361q0 -178 -77 -274.5t-226 -96.5t-226 96.5t-77 274.5t77 274.5t226 96.5t226 -96.5t77 -274.5zM321 908l94 -146h-102l-146 146h154z" />
    <glyph glyph-name="Oacute" unicode="&#xd3;" horiz-adv-x="667" 
d="M498 361q0 128 -40 191.5t-125 63.5t-125 -63.5t-40 -191.5q-2 -128 38.5 -191.5t126.5 -63.5q85 0 125 63.5t40 191.5zM636 361q0 -178 -77 -274.5t-226 -96.5t-226 96.5t-77 274.5t77 274.5t226 96.5t226 -96.5t77 -274.5zM501 908l-146 -146h-102l94 146h154z" />
    <glyph glyph-name="Ocircumflex" unicode="&#xd4;" horiz-adv-x="667" 
d="M498 361q0 128 -40 191.5t-125 63.5t-125 -63.5t-40 -191.5q-2 -128 38.5 -191.5t126.5 -63.5q85 0 125 63.5t40 191.5zM636 361q0 -178 -77 -274.5t-226 -96.5t-226 96.5t-77 274.5t77 274.5t226 96.5t226 -96.5t77 -274.5zM395 908l115 -146h-113l-63 82l-64 -82h-112
l113 146h124z" />
    <glyph glyph-name="Otilde" unicode="&#xd5;" horiz-adv-x="667" 
d="M498 361q0 128 -40 191.5t-125 63.5t-125 -63.5t-40 -191.5q-2 -128 38.5 -191.5t126.5 -63.5q85 0 125 63.5t40 191.5zM636 361q0 -178 -77 -274.5t-226 -96.5t-226 96.5t-77 274.5t77 274.5t226 96.5t226 -96.5t77 -274.5zM517 898q-5 -23 -13 -45t-21 -39t-31.5 -27.5
t-45.5 -10.5q-19 0 -38.5 5.5t-38.5 12t-37 12t-33 5.5q-20 0 -30 -12t-16 -29h-62q3 23 11.5 45t23 39t34 27.5t45.5 10.5q20 0 40 -6t38 -12.5t34 -12.5t28 -6q18 0 30.5 13t16.5 30h65z" />
    <glyph glyph-name="Odieresis" unicode="&#xd6;" horiz-adv-x="667" 
d="M498 361q0 128 -40 191.5t-125 63.5t-125 -63.5t-40 -191.5q-2 -128 38.5 -191.5t126.5 -63.5q85 0 125 63.5t40 191.5zM636 361q0 -178 -77 -274.5t-226 -96.5t-226 96.5t-77 274.5t77 274.5t226 96.5t226 -96.5t77 -274.5zM489 888v-116h-120v116h120zM299 888v-116
h-120v116h120z" />
    <glyph glyph-name="multiply" unicode="&#xd7;" horiz-adv-x="600" 
d="M117 0l-77 78l183 183l-183 183l77 76l183 -182l183 182l77 -76l-183 -183l183 -183l-77 -78l-183 184z" />
    <glyph glyph-name="Oslash" unicode="&#xd8;" horiz-adv-x="667" 
d="M425 588q-37 28 -92 28q-85 0 -125 -63.5t-40 -191.5q0 -41 3.5 -75t11.5 -60zM238 136q37 -30 95 -30q85 0 125 63.5t40 191.5q0 84 -18 138zM565 626q71 -95 71 -265q0 -178 -77 -274.5t-226 -96.5q-99 0 -164 43l-66 -99h-114l110 165q-69 94 -69 262q0 178 77 274.5
t226 96.5q95 0 161 -42l47 72h115z" />
    <glyph glyph-name="Ugrave" unicode="&#xd9;" horiz-adv-x="722" 
d="M500 722h138v-452q0 -79 -22.5 -132.5t-61 -86.5t-88.5 -47t-105 -14t-105 14t-88.5 47t-61 86.5t-22.5 132.5v452h138v-458q0 -88 34.5 -123t104.5 -35t104.5 35t34.5 123v458zM345 908l94 -146h-102l-146 146h154z" />
    <glyph glyph-name="Uacute" unicode="&#xda;" horiz-adv-x="722" 
d="M500 722h138v-452q0 -79 -22.5 -132.5t-61 -86.5t-88.5 -47t-105 -14t-105 14t-88.5 47t-61 86.5t-22.5 132.5v452h138v-458q0 -88 34.5 -123t104.5 -35t104.5 35t34.5 123v458zM525 908l-146 -146h-102l94 146h154z" />
    <glyph glyph-name="Ucircumflex" unicode="&#xdb;" horiz-adv-x="722" 
d="M500 722h138v-452q0 -79 -22.5 -132.5t-61 -86.5t-88.5 -47t-105 -14t-105 14t-88.5 47t-61 86.5t-22.5 132.5v452h138v-458q0 -88 34.5 -123t104.5 -35t104.5 35t34.5 123v458zM419 908l115 -146h-113l-63 82l-64 -82h-112l113 146h124z" />
    <glyph glyph-name="Udieresis" unicode="&#xdc;" horiz-adv-x="722" 
d="M500 722h138v-452q0 -79 -22.5 -132.5t-61 -86.5t-88.5 -47t-105 -14t-105 14t-88.5 47t-61 86.5t-22.5 132.5v452h138v-458q0 -88 34.5 -123t104.5 -35t104.5 35t34.5 123v458zM513 888v-116h-120v116h120zM323 888v-116h-120v116h120z" />
    <glyph glyph-name="Yacute" unicode="&#xdd;" 
d="M278 436l124 286h144l-199 -434v-288h-138v288l-199 434h144zM445 908l-146 -146h-102l94 146h154z" />
    <glyph glyph-name="Thorn" unicode="&#xde;" horiz-adv-x="611" 
d="M206 271h110q39 0 64.5 7t41 20.5t21.5 32.5t6 43t-6 43t-21.5 32.5t-41 20.5t-64.5 7h-110v-206zM68 0v722h138v-133h126q58 0 105.5 -12.5t80.5 -39t51 -67t18 -96.5t-18 -97t-51 -67t-80.5 -38.5t-105.5 -12.5h-126v-159h-138z" />
    <glyph glyph-name="germandbls" unicode="&#xdf;" horiz-adv-x="500" 
d="M53 0v550q0 37 11.5 68.5t34.5 54.5t58.5 36t82.5 13q100 0 148 -47.5t48 -128.5q0 -53 -15.5 -89t-60.5 -59v-2q52 -15 86 -63t34 -135q0 -59 -13 -99t-36.5 -64t-56.5 -34.5t-73 -10.5q-16 0 -41.5 6.5t-39.5 17.5l30 88q10 -5 22 -8.5t23 -3.5q61 0 61 114q0 28 -4 52
t-14 42t-27.5 28t-44.5 10h-26v100h16q27 0 43.5 21.5t16.5 67.5q0 97 -74 97q-65 0 -65 -76v-546h-124z" />
    <glyph glyph-name="agrave" unicode="&#xe0;" horiz-adv-x="500" 
d="M316 249q-31 -6 -62 -13t-56 -18.5t-40.5 -29.5t-15.5 -45q0 -29 17 -45t43 -16q15 0 31 5.5t31 13.5t28.5 18t23.5 18v112zM329 0l-8 45q-38 -26 -75.5 -40.5t-86.5 -14.5q-35 0 -61.5 11.5t-44 31t-26.5 44t-9 51.5q0 89 73 137.5t225 66.5v44q0 30 -21.5 46t-54.5 16
q-44 0 -70 -19.5t-44 -44.5l-80 61q12 21 33 38.5t47.5 30.5t55.5 20t58 6q52 -1 90 -12t62.5 -35.5t36 -64.5t11.5 -98v-245q0 -20 2 -39t8 -36h-121zM237 732l94 -146h-102l-146 146h154z" />
    <glyph glyph-name="aacute" unicode="&#xe1;" horiz-adv-x="500" 
d="M316 249q-31 -6 -62 -13t-56 -18.5t-40.5 -29.5t-15.5 -45q0 -29 17 -45t43 -16q15 0 31 5.5t31 13.5t28.5 18t23.5 18v112zM329 0l-8 45q-38 -26 -75.5 -40.5t-86.5 -14.5q-35 0 -61.5 11.5t-44 31t-26.5 44t-9 51.5q0 89 73 137.5t225 66.5v44q0 30 -21.5 46t-54.5 16
q-44 0 -70 -19.5t-44 -44.5l-80 61q12 21 33 38.5t47.5 30.5t55.5 20t58 6q52 -1 90 -12t62.5 -35.5t36 -64.5t11.5 -98v-245q0 -20 2 -39t8 -36h-121zM417 732l-146 -146h-102l94 146h154z" />
    <glyph glyph-name="acircumflex" unicode="&#xe2;" horiz-adv-x="500" 
d="M316 249q-31 -6 -62 -13t-56 -18.5t-40.5 -29.5t-15.5 -45q0 -29 17 -45t43 -16q15 0 31 5.5t31 13.5t28.5 18t23.5 18v112zM329 0l-8 45q-38 -26 -75.5 -40.5t-86.5 -14.5q-35 0 -61.5 11.5t-44 31t-26.5 44t-9 51.5q0 89 73 137.5t225 66.5v44q0 30 -21.5 46t-54.5 16
q-44 0 -70 -19.5t-44 -44.5l-80 61q12 21 33 38.5t47.5 30.5t55.5 20t58 6q52 -1 90 -12t62.5 -35.5t36 -64.5t11.5 -98v-245q0 -20 2 -39t8 -36h-121zM311 732l115 -146h-113l-63 82l-64 -82h-112l113 146h124z" />
    <glyph glyph-name="atilde" unicode="&#xe3;" horiz-adv-x="500" 
d="M316 249q-31 -6 -62 -13t-56 -18.5t-40.5 -29.5t-15.5 -45q0 -29 17 -45t43 -16q15 0 31 5.5t31 13.5t28.5 18t23.5 18v112zM329 0l-8 45q-38 -26 -75.5 -40.5t-86.5 -14.5q-35 0 -61.5 11.5t-44 31t-26.5 44t-9 51.5q0 89 73 137.5t225 66.5v44q0 30 -21.5 46t-54.5 16
q-44 0 -70 -19.5t-44 -44.5l-80 61q12 21 33 38.5t47.5 30.5t55.5 20t58 6q52 -1 90 -12t62.5 -35.5t36 -64.5t11.5 -98v-245q0 -20 2 -39t8 -36h-121zM433 722q-5 -23 -13 -45t-21 -39t-31.5 -27.5t-45.5 -10.5q-19 0 -38.5 5.5t-38.5 12t-37 12t-33 5.5q-20 0 -30 -12
t-16 -29h-62q3 23 11.5 45t23 39t34 27.5t45.5 10.5q20 0 40 -6t38 -12.5t34 -12.5t28 -6q18 0 30.5 13t16.5 30h65z" />
    <glyph glyph-name="adieresis" unicode="&#xe4;" horiz-adv-x="500" 
d="M316 249q-31 -6 -62 -13t-56 -18.5t-40.5 -29.5t-15.5 -45q0 -29 17 -45t43 -16q15 0 31 5.5t31 13.5t28.5 18t23.5 18v112zM329 0l-8 45q-38 -26 -75.5 -40.5t-86.5 -14.5q-35 0 -61.5 11.5t-44 31t-26.5 44t-9 51.5q0 89 73 137.5t225 66.5v44q0 30 -21.5 46t-54.5 16
q-44 0 -70 -19.5t-44 -44.5l-80 61q12 21 33 38.5t47.5 30.5t55.5 20t58 6q52 -1 90 -12t62.5 -35.5t36 -64.5t11.5 -98v-245q0 -20 2 -39t8 -36h-121zM405 712v-116h-120v116h120zM215 712v-116h-120v116h120z" />
    <glyph glyph-name="aring" unicode="&#xe5;" horiz-adv-x="500" 
d="M316 249q-31 -6 -62 -13t-56 -18.5t-40.5 -29.5t-15.5 -45q0 -29 17 -45t43 -16q15 0 31 5.5t31 13.5t28.5 18t23.5 18v112zM329 0l-8 45q-38 -26 -75.5 -40.5t-86.5 -14.5q-35 0 -61.5 11.5t-44 31t-26.5 44t-9 51.5q0 89 73 137.5t225 66.5v44q0 30 -21.5 46t-54.5 16
q-44 0 -70 -19.5t-44 -44.5l-80 61q12 21 33 38.5t47.5 30.5t55.5 20t58 6q52 -1 90 -12t62.5 -35.5t36 -64.5t11.5 -98v-245q0 -20 2 -39t8 -36h-121zM196 693q0 -23 15.5 -38.5t38.5 -15.5t38.5 15.5t15.5 38.5t-15.5 38.5t-38.5 15.5t-38.5 -15.5t-15.5 -38.5zM142 693
q0 22 8.5 42t23 34.5t34 23t42.5 8.5q22 0 42 -8.5t34.5 -23t23 -34.5t8.5 -42q0 -23 -8.5 -42.5t-23 -34t-34.5 -23t-42 -8.5q-23 0 -42.5 8.5t-34 23t-23 34t-8.5 42.5z" />
    <glyph glyph-name="ae" unicode="&#xe6;" horiz-adv-x="778" 
d="M636 324q-2 54 -28.5 84t-71.5 30q-47 0 -73.5 -30t-28.5 -84h202zM320 249q-33 -6 -64.5 -13t-57 -18.5t-41 -29.5t-15.5 -45q0 -29 17 -45t43 -16q15 0 31 5.5t31.5 13.5t30 18t25.5 18v112zM434 240v-52q0 -44 30 -71t78 -27q45 0 70 17.5t48 44.5l90 -56
q-36 -56 -89.5 -81t-128.5 -25q-21 0 -43.5 3.5t-44 13t-41 25t-34.5 39.5q-37 -27 -67 -43t-54.5 -24.5t-46 -11t-42.5 -2.5q-35 0 -61.5 11.5t-44 31t-26.5 44t-9 51.5q0 89 73.5 137.5t228.5 66.5v44q0 30 -23.5 46t-56.5 16q-44 0 -70 -19.5t-44 -44.5l-80 61
q12 21 33 38.5t47.5 30.5t55.5 20t58 6q58 -2 94 -16t57 -40q53 56 141 56q53 0 94 -19.5t68.5 -52.5t41.5 -76.5t14 -90.5v-51h-316z" />
    <glyph glyph-name="ccedilla" unicode="&#xe7;" horiz-adv-x="500" 
d="M150 -161q13 -5 35 -10.5t43 -5.5q25 0 38.5 8t13.5 34q0 20 -13 25.5t-30 5.5q-11 0 -22.5 -2t-19.5 -4l-20 20l53 81q-48 4 -86 24.5t-64 55t-40 82.5t-14 107q0 62 15.5 112t44.5 85t71 54t95 19q74 0 128.5 -36.5t76.5 -102.5l-103 -40q-15 33 -36 56t-66 23
q-52 0 -77 -41t-25 -129t25.5 -129t80.5 -41q41 0 66 24t44 59l94 -53q-34 -63 -76 -93t-101 -35l-37 -55q20 5 36 5q34 0 61 -18t27 -58q0 -25 -12 -43t-30.5 -29.5t-41 -17t-43.5 -5.5q-29 0 -56 7.5t-53 18.5z" />
    <glyph glyph-name="egrave" unicode="&#xe8;" horiz-adv-x="500" 
d="M348 324q-2 54 -28.5 84t-71.5 30t-71.5 -30t-28.5 -84h200zM148 240q2 -81 33 -115.5t75 -34.5q43 0 68 17.5t48 44.5l90 -56q-36 -56 -89.5 -81t-128.5 -25q-51 0 -91.5 19t-69 54t-44 85t-15.5 112t15.5 112t44.5 85t71 54t95 19q51 0 90.5 -19.5t66.5 -52.5t41 -76.5
t14 -90.5v-51h-314zM237 732l94 -146h-102l-146 146h154z" />
    <glyph glyph-name="eacute" unicode="&#xe9;" horiz-adv-x="500" 
d="M348 324q-2 54 -28.5 84t-71.5 30t-71.5 -30t-28.5 -84h200zM148 240q2 -81 33 -115.5t75 -34.5q43 0 68 17.5t48 44.5l90 -56q-36 -56 -89.5 -81t-128.5 -25q-51 0 -91.5 19t-69 54t-44 85t-15.5 112t15.5 112t44.5 85t71 54t95 19q51 0 90.5 -19.5t66.5 -52.5t41 -76.5
t14 -90.5v-51h-314zM417 732l-146 -146h-102l94 146h154z" />
    <glyph glyph-name="ecircumflex" unicode="&#xea;" horiz-adv-x="500" 
d="M348 324q-2 54 -28.5 84t-71.5 30t-71.5 -30t-28.5 -84h200zM148 240q2 -81 33 -115.5t75 -34.5q43 0 68 17.5t48 44.5l90 -56q-36 -56 -89.5 -81t-128.5 -25q-51 0 -91.5 19t-69 54t-44 85t-15.5 112t15.5 112t44.5 85t71 54t95 19q51 0 90.5 -19.5t66.5 -52.5t41 -76.5
t14 -90.5v-51h-314zM311 732l115 -146h-113l-63 82l-64 -82h-112l113 146h124z" />
    <glyph glyph-name="edieresis" unicode="&#xeb;" horiz-adv-x="500" 
d="M348 324q-2 54 -28.5 84t-71.5 30t-71.5 -30t-28.5 -84h200zM148 240q2 -81 33 -115.5t75 -34.5q43 0 68 17.5t48 44.5l90 -56q-36 -56 -89.5 -81t-128.5 -25q-51 0 -91.5 19t-69 54t-44 85t-15.5 112t15.5 112t44.5 85t71 54t95 19q51 0 90.5 -19.5t66.5 -52.5t41 -76.5
t14 -90.5v-51h-314zM405 712v-116h-120v116h120zM215 712v-116h-120v116h120z" />
    <glyph glyph-name="igrave" unicode="&#xec;" horiz-adv-x="278" 
d="M201 0h-124v520h124v-520zM128 732l94 -146h-102l-146 146h154z" />
    <glyph glyph-name="iacute" unicode="&#xed;" horiz-adv-x="278" 
d="M201 0h-124v520h124v-520zM308 732l-146 -146h-102l94 146h154z" />
    <glyph glyph-name="icircumflex" unicode="&#xee;" horiz-adv-x="278" 
d="M201 0h-124v520h124v-520zM202 732l115 -146h-113l-63 82l-64 -82h-112l113 146h124z" />
    <glyph glyph-name="idieresis" unicode="&#xef;" horiz-adv-x="278" 
d="M201 0h-124v520h124v-520zM296 712v-116h-120v116h120zM106 712v-116h-120v116h120z" />
    <glyph glyph-name="eth" unicode="&#xf0;" horiz-adv-x="500" 
d="M250 90q52 0 77 39.5t25 114.5t-25 114.5t-77 39.5t-77 -39.5t-25 -114.5t25 -114.5t77 -39.5zM246 722q15 -11 28.5 -22.5t27.5 -25.5l100 48l36 -64l-88 -43q29 -39 52.5 -84.5t40 -93.5t25 -97t8.5 -96q0 -56 -15.5 -102.5t-44.5 -80.5t-71 -52.5t-95 -18.5t-95 18.5
t-71 52.5t-44.5 80.5t-15.5 102.5t15.5 102.5t44.5 80.5t71 52.5t95 18.5q10 0 19.5 -1t22.5 -4q-8 20 -19 38.5t-23 35.5l-102 -49l-36 64l91 44q-15 17 -31.5 32.5t-33.5 29.5z" />
    <glyph glyph-name="ntilde" unicode="&#xf1;" 
d="M64 0v520h114v-56q35 24 74.5 45t85.5 21q78 0 116 -47t38 -127v-356h-124v338q0 53 -16 72.5t-48 19.5q-41 0 -70.5 -18.5t-45.5 -36.5v-375h-124zM456 722q-5 -23 -13 -45t-21 -39t-31.5 -27.5t-45.5 -10.5q-19 0 -38.5 5.5t-38.5 12t-37 12t-33 5.5q-20 0 -30 -12
t-16 -29h-62q3 23 11.5 45t23 39t34 27.5t45.5 10.5q20 0 40 -6t38 -12.5t34 -12.5t28 -6q18 0 30.5 13t16.5 30h65z" />
    <glyph glyph-name="ograve" unicode="&#xf2;" horiz-adv-x="500" 
d="M352 260q0 88 -25 129t-77 41t-77 -41t-25 -129t25 -129t77 -41t77 41t25 129zM24 260q0 62 15.5 112t44.5 85t71 54t95 19t95 -19t71 -54t44.5 -85t15.5 -112t-15.5 -112t-44.5 -85t-71 -54t-95 -19t-95 19t-71 54t-44.5 85t-15.5 112zM234 732l94 -146h-102l-146 146
h154z" />
    <glyph glyph-name="oacute" unicode="&#xf3;" horiz-adv-x="500" 
d="M352 260q0 88 -25 129t-77 41t-77 -41t-25 -129t25 -129t77 -41t77 41t25 129zM24 260q0 62 15.5 112t44.5 85t71 54t95 19t95 -19t71 -54t44.5 -85t15.5 -112t-15.5 -112t-44.5 -85t-71 -54t-95 -19t-95 19t-71 54t-44.5 85t-15.5 112zM414 732l-146 -146h-102l94 146
h154z" />
    <glyph glyph-name="ocircumflex" unicode="&#xf4;" horiz-adv-x="500" 
d="M352 260q0 88 -25 129t-77 41t-77 -41t-25 -129t25 -129t77 -41t77 41t25 129zM24 260q0 62 15.5 112t44.5 85t71 54t95 19t95 -19t71 -54t44.5 -85t15.5 -112t-15.5 -112t-44.5 -85t-71 -54t-95 -19t-95 19t-71 54t-44.5 85t-15.5 112zM308 732l115 -146h-113l-63 82
l-64 -82h-112l113 146h124z" />
    <glyph glyph-name="otilde" unicode="&#xf5;" horiz-adv-x="500" 
d="M352 260q0 88 -25 129t-77 41t-77 -41t-25 -129t25 -129t77 -41t77 41t25 129zM24 260q0 62 15.5 112t44.5 85t71 54t95 19t95 -19t71 -54t44.5 -85t15.5 -112t-15.5 -112t-44.5 -85t-71 -54t-95 -19t-95 19t-71 54t-44.5 85t-15.5 112zM430 722q-5 -23 -13 -45t-21 -39
t-31.5 -27.5t-45.5 -10.5q-19 0 -38.5 5.5t-38.5 12t-37 12t-33 5.5q-20 0 -30 -12t-16 -29h-62q3 23 11.5 45t23 39t34 27.5t45.5 10.5q20 0 40 -6t38 -12.5t34 -12.5t28 -6q18 0 30.5 13t16.5 30h65z" />
    <glyph glyph-name="odieresis" unicode="&#xf6;" horiz-adv-x="500" 
d="M352 260q0 88 -25 129t-77 41t-77 -41t-25 -129t25 -129t77 -41t77 41t25 129zM24 260q0 62 15.5 112t44.5 85t71 54t95 19t95 -19t71 -54t44.5 -85t15.5 -112t-15.5 -112t-44.5 -85t-71 -54t-95 -19t-95 19t-71 54t-44.5 85t-15.5 112zM402 712v-116h-120v116h120z
M212 712v-116h-120v116h120z" />
    <glyph glyph-name="divide" unicode="&#xf7;" horiz-adv-x="600" 
d="M389 449q0 -17 -7 -32.5t-19.5 -28t-29 -20t-34.5 -7.5q-17 0 -33 7.5t-28 20t-19 28t-7 32.5q0 16 7 32t19 29t28 20.5t33 7.5q18 0 34.5 -7.5t29 -20.5t19.5 -29t7 -32zM389 70q0 -17 -7 -32.5t-19.5 -28t-29 -20t-34.5 -7.5q-17 0 -33 7.5t-28 20t-19 28t-7 32.5
q0 16 7 32t19 29t28 20.5t33 7.5q18 0 34.5 -7.5t29 -20.5t19.5 -29t7 -32zM40 206v108h520v-108h-520z" />
    <glyph glyph-name="oslash" unicode="&#xf8;" horiz-adv-x="500" 
d="M210 98q18 -8 40 -8q52 0 77 41t25 129q0 24 -2 44.5t-6 37.5zM296 419q-20 11 -46 11q-52 0 -77 -41t-25 -129q0 -55 10 -91zM101 -100h-91l84 153q-70 73 -70 207q0 62 15.5 112t44.5 85t71 54t95 19q54 0 96 -20l56 102h91l-82 -149q32 -35 48.5 -86.5t16.5 -116.5
q0 -62 -15.5 -112t-44.5 -85t-71 -54t-95 -19q-48 0 -90 17z" />
    <glyph glyph-name="ugrave" unicode="&#xf9;" 
d="M492 520v-520h-114v56q-35 -24 -74.5 -45t-85.5 -21q-78 0 -116 47t-38 127v356h124v-338q0 -53 16 -72.5t48 -19.5q41 0 70.5 18.5t45.5 36.5v375h124zM265 732l94 -146h-102l-146 146h154z" />
    <glyph glyph-name="uacute" unicode="&#xfa;" 
d="M492 520v-520h-114v56q-35 -24 -74.5 -45t-85.5 -21q-78 0 -116 47t-38 127v356h124v-338q0 -53 16 -72.5t48 -19.5q41 0 70.5 18.5t45.5 36.5v375h124zM445 732l-146 -146h-102l94 146h154z" />
    <glyph glyph-name="ucircumflex" unicode="&#xfb;" 
d="M492 520v-520h-114v56q-35 -24 -74.5 -45t-85.5 -21q-78 0 -116 47t-38 127v356h124v-338q0 -53 16 -72.5t48 -19.5q41 0 70.5 18.5t45.5 36.5v375h124zM339 732l115 -146h-113l-63 82l-64 -82h-112l113 146h124z" />
    <glyph glyph-name="udieresis" unicode="&#xfc;" 
d="M492 520v-520h-114v56q-35 -24 -74.5 -45t-85.5 -21q-78 0 -116 47t-38 127v356h124v-338q0 -53 16 -72.5t48 -19.5q41 0 70.5 18.5t45.5 36.5v375h124zM433 712v-116h-120v116h120zM243 712v-116h-120v116h120z" />
    <glyph glyph-name="yacute" unicode="&#xfd;" horiz-adv-x="444" 
d="M10 -84q14 -3 26 -3.5t26 -0.5q32 0 51.5 9.5t30.5 31.5q9 19 14.5 32t5.5 29q0 14 -5.5 30t-10.5 32l-139 444h125l86 -320h2l89 320h124l-164 -521q-21 -56 -40.5 -92.5t-42.5 -58t-51.5 -30t-66.5 -8.5q-23 0 -36 1t-24 3v102zM389 732l-146 -146h-102l94 146h154z
" />
    <glyph glyph-name="thorn" unicode="&#xfe;" 
d="M188 134q19 -17 42.5 -30.5t53.5 -13.5q56 0 86 43.5t30 126.5t-30 126.5t-86 43.5q-20 0 -34 -4.5t-24.5 -11t-19 -15t-18.5 -15.5v-250zM64 722h119v-250q27 26 59 42t74 16q52 0 91 -21.5t65 -59.5t39 -90t13 -113q0 -48 -13.5 -94t-40 -82t-65.5 -58t-89 -22
q-16 0 -34 4.5t-35.5 12t-32.5 18.5t-24 23h-2v-238h-124v912z" />
    <glyph glyph-name="ydieresis" unicode="&#xff;" horiz-adv-x="444" 
d="M10 -84q14 -3 26 -3.5t26 -0.5q32 0 51.5 9.5t30.5 31.5q9 19 14.5 32t5.5 29q0 14 -5.5 30t-10.5 32l-139 444h125l86 -320h2l89 320h124l-164 -521q-21 -56 -40.5 -92.5t-42.5 -58t-51.5 -30t-66.5 -8.5q-23 0 -36 1t-24 3v102zM377 712v-116h-120v116h120zM187 712
v-116h-120v116h120z" />
    <glyph glyph-name="Amacron" unicode="&#x100;" horiz-adv-x="611" 
d="M223 270h168l-81 314h-2zM221 723h172l205 -723h-137l-40 156h-228l-43 -156h-137zM139 794v74h346v-74h-346z" />
    <glyph glyph-name="amacron" unicode="&#x101;" horiz-adv-x="500" 
d="M316 249q-31 -6 -62 -13t-56 -18.5t-40.5 -29.5t-15.5 -45q0 -29 17 -45t43 -16q15 0 31 5.5t31 13.5t28.5 18t23.5 18v112zM329 0l-8 45q-38 -26 -75.5 -40.5t-86.5 -14.5q-35 0 -61.5 11.5t-44 31t-26.5 44t-9 51.5q0 89 73 137.5t225 66.5v44q0 30 -21.5 46t-54.5 16
q-44 0 -70 -19.5t-44 -44.5l-80 61q12 21 33 38.5t47.5 30.5t55.5 20t58 6q52 -1 90 -12t62.5 -35.5t36 -64.5t11.5 -98v-245q0 -20 2 -39t8 -36h-121zM75 618v74h346v-74h-346z" />
    <glyph glyph-name="Abreve" unicode="&#x102;" horiz-adv-x="611" 
d="M223 270h168l-81 314h-2zM221 723h172l205 -723h-137l-40 156h-228l-43 -156h-137zM480 908q-11 -75 -56 -110.5t-120 -35.5q-71 0 -114 37t-48 109h66q2 -21 12 -34.5t24.5 -21.5t32 -11t35.5 -3q41 0 67 14t35 56h66z" />
    <glyph glyph-name="abreve" unicode="&#x103;" horiz-adv-x="500" 
d="M316 249q-31 -6 -62 -13t-56 -18.5t-40.5 -29.5t-15.5 -45q0 -29 17 -45t43 -16q15 0 31 5.5t31 13.5t28.5 18t23.5 18v112zM329 0l-8 45q-38 -26 -75.5 -40.5t-86.5 -14.5q-35 0 -61.5 11.5t-44 31t-26.5 44t-9 51.5q0 89 73 137.5t225 66.5v44q0 30 -21.5 46t-54.5 16
q-44 0 -70 -19.5t-44 -44.5l-80 61q12 21 33 38.5t47.5 30.5t55.5 20t58 6q52 -1 90 -12t62.5 -35.5t36 -64.5t11.5 -98v-245q0 -20 2 -39t8 -36h-121zM417 732q-11 -75 -56 -110.5t-120 -35.5q-71 0 -114 37t-48 109h66q2 -21 12 -34.5t24.5 -21.5t32 -11t35.5 -3
q41 0 67 14t35 56h66z" />
    <glyph glyph-name="Aogonek" unicode="&#x104;" horiz-adv-x="611" 
d="M221 723h172l205 -723h-34q-10 -4 -22 -10q-24 -11 -45.5 -26t-36 -35t-14.5 -45q0 -23 15 -35.5t37 -12.5q24 0 50 14t46 27l20 -36q-34 -23 -71.5 -40t-79.5 -17q-43 0 -74 22t-31 67q0 38 23 64t57 44q22 11 47 19h-24l-40 156h-228l-43 -156h-137zM223 270h168
l-81 314h-2z" />
    <glyph glyph-name="aogonek" unicode="&#x105;" horiz-adv-x="500" 
d="M405 -9q-23 -12 -42 -27t-30.5 -35t-11.5 -45q0 -23 15 -35.5t32 -12.5q22 0 39 9t39 23l20 -36q-34 -23 -61.5 -35.5t-64.5 -12.5q-44 0 -73.5 22.5t-29.5 65.5q0 38 19.5 64.5t49.5 44.5l28 14l-9 53q-42 -29 -79.5 -43.5t-86.5 -14.5q-35 0 -61.5 11.5t-44 31
t-26.5 44t-9 51.5q0 89 73 137.5t225 66.5v44q0 30 -21.5 46t-54.5 16q-44 0 -70 -19.5t-44 -44.5l-80 61q12 21 33 38.5t47.5 30.5t55.5 20t58 6q52 -1 90 -12t62.5 -35.5t36 -64.5t11.5 -98v-245q0 -20 2 -39t8 -36h-26zM316 249q-31 -6 -62 -13t-56 -18.5t-40.5 -29.5
t-15.5 -45q0 -29 17 -45t43 -16q15 0 31 5.5t31 13.5t28.5 18t23.5 18v112z" />
    <glyph glyph-name="Cacute" unicode="&#x106;" horiz-adv-x="611" 
d="M447 512q-15 46 -47.5 75t-83.5 29q-69 0 -108.5 -63.5t-39.5 -191.5q-3 -255 152 -255q23 0 42.5 5t36 17t32 32.5t30.5 52.5l128 -34q-32 -94 -100.5 -141.5t-168.5 -47.5q-139 0 -214.5 96.5t-75.5 274.5t75.5 274.5t214.5 96.5q104 0 165 -46.5t87 -143.5zM484 908
l-146 -146h-102l94 146h154z" />
    <glyph glyph-name="cacute" unicode="&#x107;" horiz-adv-x="500" 
d="M352 351q-15 33 -36 56t-66 23q-52 0 -77 -41t-25 -129t25.5 -129t80.5 -41q41 0 66 24t44 59l94 -53q-38 -70 -87 -100.5t-121 -29.5q-53 0 -95 19t-71 54t-44.5 85t-15.5 112t15.5 112t44.5 85t71 54t95 19q74 0 128.5 -36.5t76.5 -102.5zM418 732l-146 -146h-102
l94 146h154z" />
    <glyph glyph-name="Ccircumflex" unicode="&#x108;" horiz-adv-x="611" 
d="M447 512q-15 46 -47.5 75t-83.5 29q-69 0 -108.5 -63.5t-39.5 -191.5q-3 -255 152 -255q23 0 42.5 5t36 17t32 32.5t30.5 52.5l128 -34q-32 -94 -100.5 -141.5t-168.5 -47.5q-139 0 -214.5 96.5t-75.5 274.5t75.5 274.5t214.5 96.5q104 0 165 -46.5t87 -143.5zM376 908
l115 -146h-113l-63 82l-64 -82h-112l113 146h124z" />
    <glyph glyph-name="ccircumflex" unicode="&#x109;" horiz-adv-x="500" 
d="M352 351q-15 33 -36 56t-66 23q-52 0 -77 -41t-25 -129t25.5 -129t80.5 -41q41 0 66 24t44 59l94 -53q-38 -70 -87 -100.5t-121 -29.5q-53 0 -95 19t-71 54t-44.5 85t-15.5 112t15.5 112t44.5 85t71 54t95 19q74 0 128.5 -36.5t76.5 -102.5zM311 732l115 -146h-113
l-63 82l-64 -82h-112l113 146h124z" />
    <glyph glyph-name="Cdotaccent" unicode="&#x10a;" horiz-adv-x="611" 
d="M447 512q-15 46 -47.5 75t-83.5 29q-69 0 -108.5 -63.5t-39.5 -191.5q-3 -255 152 -255q23 0 42.5 5t36 17t32 32.5t30.5 52.5l128 -34q-32 -94 -100.5 -141.5t-168.5 -47.5q-139 0 -214.5 96.5t-75.5 274.5t75.5 274.5t214.5 96.5q104 0 165 -46.5t87 -143.5zM375 888
v-116h-120v116h120z" />
    <glyph glyph-name="cdotaccent" unicode="&#x10b;" horiz-adv-x="500" 
d="M352 351q-15 33 -36 56t-66 23q-52 0 -77 -41t-25 -129t25.5 -129t80.5 -41q41 0 66 24t44 59l94 -53q-38 -70 -87 -100.5t-121 -29.5q-53 0 -95 19t-71 54t-44.5 85t-15.5 112t15.5 112t44.5 85t71 54t95 19q74 0 128.5 -36.5t76.5 -102.5zM310 712v-116h-120v116h120z
" />
    <glyph glyph-name="Ccaron" unicode="&#x10c;" horiz-adv-x="611" 
d="M447 512q-15 46 -47.5 75t-83.5 29q-69 0 -108.5 -63.5t-39.5 -191.5q-3 -255 152 -255q23 0 42.5 5t36 17t32 32.5t30.5 52.5l128 -34q-32 -94 -100.5 -141.5t-168.5 -47.5q-139 0 -214.5 96.5t-75.5 274.5t75.5 274.5t214.5 96.5q104 0 165 -46.5t87 -143.5zM252 762
l-113 146h112l64 -82l63 82h113l-115 -146h-124z" />
    <glyph glyph-name="ccaron" unicode="&#x10d;" horiz-adv-x="500" 
d="M352 351q-15 33 -36 56t-66 23q-52 0 -77 -41t-25 -129t25.5 -129t80.5 -41q41 0 66 24t44 59l94 -53q-38 -70 -87 -100.5t-121 -29.5q-53 0 -95 19t-71 54t-44.5 85t-15.5 112t15.5 112t44.5 85t71 54t95 19q74 0 128.5 -36.5t76.5 -102.5zM187 586l-113 146h112l64 -82
l63 82h113l-115 -146h-124z" />
    <glyph glyph-name="Dcaron" unicode="&#x10e;" horiz-adv-x="667" 
d="M216 116h92q59 0 97 20t59.5 54t30 78.5t8.5 92.5t-8.5 92.5t-30 78.5t-59.5 54t-97 20h-92v-490zM78 722h239q72 0 131 -20.5t102 -64.5t67 -112t24 -164t-24 -164t-67 -112t-102 -64.5t-131 -20.5h-239v722zM242 762l-113 146h112l64 -82l63 82h113l-115 -146h-124z
" />
    <glyph glyph-name="dcaron" unicode="&#x10f;" 
d="M368 386q-19 17 -42.5 30.5t-53.5 13.5q-56 0 -86 -43.5t-30 -126.5t30 -126.5t86 -43.5q20 0 34 4.5t24.5 11t19 14.5t18.5 16v250zM492 0h-105l-6 56q-33 -32 -66 -49t-75 -17q-52 0 -91 21.5t-65 59.5t-39 90t-13 113q0 48 13.5 94t40 82t65.5 58t89 22q16 0 34 -4.5
t35.5 -12t32.5 -18.5t24 -23h2v250h124v-722zM570 624h-44v98h100v-96l-38 -87h-49z" />
    <glyph glyph-name="Dcroat" unicode="&#x110;" horiz-adv-x="667" 
d="M216 434h149v-124h-149v-194h92q59 0 97 20t59.5 54t30 78.5t8.5 92.5t-8.5 92.5t-30 78.5t-59.5 54t-97 20h-92v-172zM78 310h-67v124h67v288h239q72 0 131 -20.5t102 -64.5t67 -112t24 -164t-24 -164t-67 -112t-102 -64.5t-131 -20.5h-239v310z" />
    <glyph glyph-name="dcroat" unicode="&#x111;" 
d="M492 0h-105l-6 56q-33 -32 -66 -49t-75 -17q-52 0 -91 21.5t-65 59.5t-39 90t-13 113q0 45 13.5 91t40 82t65.5 57t89 21q16 0 35 -4.5t35.5 -11t31.5 -17.5t24 -23h2v112h-141v87h141v54h124v-54h56v-87h-56v-581zM368 383q-19 17 -42.5 29.5t-53.5 12.5
q-56 0 -86 -42.5t-30 -122.5q0 -83 30 -126.5t86 -43.5q20 0 34 4.5t24.5 11t19 14.5t18.5 16v247z" />
    <glyph glyph-name="Emacron" unicode="&#x112;" horiz-adv-x="611" 
d="M84 0v722h478v-116h-340v-172h247v-116h-247v-202h351v-116h-489zM151 794v74h346v-74h-346z" />
    <glyph glyph-name="emacron" unicode="&#x113;" horiz-adv-x="500" 
d="M348 324q-2 54 -28.5 84t-71.5 30t-71.5 -30t-28.5 -84h200zM148 240q2 -81 33 -115.5t75 -34.5q43 0 68 17.5t48 44.5l90 -56q-36 -56 -89.5 -81t-128.5 -25q-51 0 -91.5 19t-69 54t-44 85t-15.5 112t15.5 112t44.5 85t71 54t95 19q51 0 90.5 -19.5t66.5 -52.5t41 -76.5
t14 -90.5v-51h-314zM77 618v74h346v-74h-346z" />
    <glyph glyph-name="Ebreve" unicode="&#x114;" horiz-adv-x="611" 
d="M84 0v722h478v-116h-340v-172h247v-116h-247v-202h351v-116h-489zM494 908q-11 -75 -56 -110.5t-120 -35.5q-71 0 -114 37t-48 109h66q2 -21 12 -34.5t24.5 -21.5t32 -11t35.5 -3q41 0 67 14t35 56h66z" />
    <glyph glyph-name="ebreve" unicode="&#x115;" horiz-adv-x="500" 
d="M348 324q-2 54 -28.5 84t-71.5 30t-71.5 -30t-28.5 -84h200zM148 240q2 -81 33 -115.5t75 -34.5q43 0 68 17.5t48 44.5l90 -56q-36 -56 -89.5 -81t-128.5 -25q-51 0 -91.5 19t-69 54t-44 85t-15.5 112t15.5 112t44.5 85t71 54t95 19q51 0 90.5 -19.5t66.5 -52.5t41 -76.5
t14 -90.5v-51h-314zM419 732q-11 -75 -56 -110.5t-120 -35.5q-71 0 -114 37t-48 109h66q2 -21 12 -34.5t24.5 -21.5t32 -11t35.5 -3q41 0 67 14t35 56h66z" />
    <glyph glyph-name="Edotaccent" unicode="&#x116;" horiz-adv-x="611" 
d="M84 0v722h478v-116h-340v-172h247v-116h-247v-202h351v-116h-489zM385 888v-116h-120v116h120z" />
    <glyph glyph-name="edotaccent" unicode="&#x117;" horiz-adv-x="500" 
d="M348 324q-2 54 -28.5 84t-71.5 30t-71.5 -30t-28.5 -84h200zM148 240q2 -81 33 -115.5t75 -34.5q43 0 68 17.5t48 44.5l90 -56q-36 -56 -89.5 -81t-128.5 -25q-51 0 -91.5 19t-69 54t-44 85t-15.5 112t15.5 112t44.5 85t71 54t95 19q51 0 90.5 -19.5t66.5 -52.5t41 -76.5
t14 -90.5v-51h-314zM310 712v-116h-120v116h120z" />
    <glyph glyph-name="Eogonek" unicode="&#x118;" horiz-adv-x="611" 
d="M84 0v722h478v-116h-340v-172h247v-116h-247v-202h351v-116h-52q-10 -4 -22 -10q-24 -11 -45.5 -26t-36 -35t-14.5 -45q0 -23 15 -35.5t37 -12.5q24 0 50 14t46 27l20 -36q-34 -23 -71.5 -40t-79.5 -17q-43 0 -74 22t-31 67q0 38 23 64t57 44q22 11 47 19h-358z" />
    <glyph glyph-name="eogonek" unicode="&#x119;" horiz-adv-x="500" 
d="M148 240q2 -81 33 -115.5t75 -34.5q43 0 68 17.5t48 44.5l90 -56q-36 -56 -90 -81q-10 -5 -21 -9l-30 -15q-23 -12 -44.5 -27t-36 -35t-14.5 -45q0 -23 15 -35.5t37 -12.5q24 0 50 14t46 27l20 -36q-34 -23 -71.5 -40t-79.5 -17q-43 0 -74 22t-31 67q0 38 23 64t57 44
q10 5 20 9q-48 1 -86 19q-40 19 -68.5 54t-44 85t-15.5 112t15.5 112t44.5 85t71 54t95 19q51 0 90.5 -19.5t66.5 -52.5t41 -76.5t14 -90.5v-51h-314zM348 324q-2 54 -28.5 84t-71.5 30t-71.5 -30t-28.5 -84h200z" />
    <glyph glyph-name="Ecaron" unicode="&#x11a;" horiz-adv-x="611" 
d="M84 0v722h478v-116h-340v-172h247v-116h-247v-202h351v-116h-489zM261 762l-113 146h112l64 -82l63 82h113l-115 -146h-124z" />
    <glyph glyph-name="ecaron" unicode="&#x11b;" horiz-adv-x="500" 
d="M348 324q-2 54 -28.5 84t-71.5 30t-71.5 -30t-28.5 -84h200zM148 240q2 -81 33 -115.5t75 -34.5q43 0 68 17.5t48 44.5l90 -56q-36 -56 -89.5 -81t-128.5 -25q-51 0 -91.5 19t-69 54t-44 85t-15.5 112t15.5 112t44.5 85t71 54t95 19q51 0 90.5 -19.5t66.5 -52.5t41 -76.5
t14 -90.5v-51h-314zM187 586l-113 146h112l64 -82l63 82h113l-115 -146h-124z" />
    <glyph glyph-name="Gcircumflex" unicode="&#x11c;" horiz-adv-x="667" 
d="M465 514q-25 54 -58 78t-87 24q-38 0 -66.5 -18.5t-47.5 -52.5t-28.5 -82.5t-9.5 -108.5q0 -114 40.5 -181t112.5 -67q68 0 108.5 40t42.5 103h-137v116h270v-365h-100v74q-44 -48 -87.5 -66t-100.5 -18q-74 0 -128 27.5t-89 76t-52.5 114t-17.5 142.5q0 69 14.5 137.5
t49.5 122.5t92.5 88t144.5 34q54 0 97 -14t75.5 -38.5t54.5 -58t35 -73.5zM388 908l115 -146h-113l-63 82l-64 -82h-112l113 146h124z" />
    <glyph glyph-name="gcircumflex" unicode="&#x11d;" horiz-adv-x="500" 
d="M214 10q-26 0 -42.5 -6.5t-27 -15.5t-14.5 -19.5t-4 -18.5q0 -30 30 -44t108 -14q30 0 50.5 6.5t33 15.5t18 19t5.5 17q0 9 -7.5 19.5t-26 19.5t-48.5 15t-75 6zM322 352q0 36 -25 61t-60 25q-40 0 -65 -25t-25 -61t25 -61t65 -25q35 0 60 25t25 61zM488 446
q-22 0 -44 -1.5t-36 -10.5q12 -17 20 -39.5t8 -52.5q0 -37 -12.5 -67.5t-37 -53t-61 -35t-85.5 -12.5q-41 0 -69 -5t-28 -27q0 -21 25.5 -28t63.5 -9.5t82 -5t82 -15.5t63.5 -40.5t25.5 -79.5q0 -28 -14.5 -55.5t-44 -49.5t-75 -35.5t-107.5 -13.5q-105 0 -168.5 31
t-63.5 93q0 24 8.5 42t22 30t30 18t33.5 6v2q-9 6 -22 12t-25.5 15t-21 22.5t-8.5 34.5q0 19 9.5 35t22.5 28.5t26.5 20.5t22.5 11q-32 26 -54.5 58t-22.5 80q0 34 13 66.5t39 58t64 41t89 15.5q33 0 68.5 -12.5t59.5 -33.5q18 24 47.5 36t74.5 10v-84zM301 732l115 -146
h-113l-63 82l-64 -82h-112l113 146h124z" />
    <glyph glyph-name="Gbreve" unicode="&#x11e;" horiz-adv-x="667" 
d="M465 514q-25 54 -58 78t-87 24q-38 0 -66.5 -18.5t-47.5 -52.5t-28.5 -82.5t-9.5 -108.5q0 -114 40.5 -181t112.5 -67q68 0 108.5 40t42.5 103h-137v116h270v-365h-100v74q-44 -48 -87.5 -66t-100.5 -18q-74 0 -128 27.5t-89 76t-52.5 114t-17.5 142.5q0 69 14.5 137.5
t49.5 122.5t92.5 88t144.5 34q54 0 97 -14t75.5 -38.5t54.5 -58t35 -73.5zM495 908q-11 -75 -56 -110.5t-120 -35.5q-71 0 -114 37t-48 109h66q2 -21 12 -34.5t24.5 -21.5t32 -11t35.5 -3q41 0 67 14t35 56h66z" />
    <glyph glyph-name="gbreve" unicode="&#x11f;" horiz-adv-x="500" 
d="M214 10q-26 0 -42.5 -6.5t-27 -15.5t-14.5 -19.5t-4 -18.5q0 -30 30 -44t108 -14q30 0 50.5 6.5t33 15.5t18 19t5.5 17q0 9 -7.5 19.5t-26 19.5t-48.5 15t-75 6zM322 352q0 36 -25 61t-60 25q-40 0 -65 -25t-25 -61t25 -61t65 -25q35 0 60 25t25 61zM488 446
q-22 0 -44 -1.5t-36 -10.5q12 -17 20 -39.5t8 -52.5q0 -37 -12.5 -67.5t-37 -53t-61 -35t-85.5 -12.5q-41 0 -69 -5t-28 -27q0 -21 25.5 -28t63.5 -9.5t82 -5t82 -15.5t63.5 -40.5t25.5 -79.5q0 -28 -14.5 -55.5t-44 -49.5t-75 -35.5t-107.5 -13.5q-105 0 -168.5 31
t-63.5 93q0 24 8.5 42t22 30t30 18t33.5 6v2q-9 6 -22 12t-25.5 15t-21 22.5t-8.5 34.5q0 19 9.5 35t22.5 28.5t26.5 20.5t22.5 11q-32 26 -54.5 58t-22.5 80q0 34 13 66.5t39 58t64 41t89 15.5q33 0 68.5 -12.5t59.5 -33.5q18 24 47.5 36t74.5 10v-84zM411 732
q-11 -75 -56 -110.5t-120 -35.5q-71 0 -114 37t-48 109h66q2 -21 12 -34.5t24.5 -21.5t32 -11t35.5 -3q41 0 67 14t35 56h66z" />
    <glyph glyph-name="Gdotaccent" unicode="&#x120;" horiz-adv-x="667" 
d="M465 514q-25 54 -58 78t-87 24q-38 0 -66.5 -18.5t-47.5 -52.5t-28.5 -82.5t-9.5 -108.5q0 -114 40.5 -181t112.5 -67q68 0 108.5 40t42.5 103h-137v116h270v-365h-100v74q-44 -48 -87.5 -66t-100.5 -18q-74 0 -128 27.5t-89 76t-52.5 114t-17.5 142.5q0 69 14.5 137.5
t49.5 122.5t92.5 88t144.5 34q54 0 97 -14t75.5 -38.5t54.5 -58t35 -73.5zM387 888v-116h-120v116h120z" />
    <glyph glyph-name="gdotaccent" unicode="&#x121;" horiz-adv-x="500" 
d="M214 10q-26 0 -42.5 -6.5t-27 -15.5t-14.5 -19.5t-4 -18.5q0 -30 30 -44t108 -14q30 0 50.5 6.5t33 15.5t18 19t5.5 17q0 9 -7.5 19.5t-26 19.5t-48.5 15t-75 6zM322 352q0 36 -25 61t-60 25q-40 0 -65 -25t-25 -61t25 -61t65 -25q35 0 60 25t25 61zM488 446
q-22 0 -44 -1.5t-36 -10.5q12 -17 20 -39.5t8 -52.5q0 -37 -12.5 -67.5t-37 -53t-61 -35t-85.5 -12.5q-41 0 -69 -5t-28 -27q0 -21 25.5 -28t63.5 -9.5t82 -5t82 -15.5t63.5 -40.5t25.5 -79.5q0 -28 -14.5 -55.5t-44 -49.5t-75 -35.5t-107.5 -13.5q-105 0 -168.5 31
t-63.5 93q0 24 8.5 42t22 30t30 18t33.5 6v2q-9 6 -22 12t-25.5 15t-21 22.5t-8.5 34.5q0 19 9.5 35t22.5 28.5t26.5 20.5t22.5 11q-32 26 -54.5 58t-22.5 80q0 34 13 66.5t39 58t64 41t89 15.5q33 0 68.5 -12.5t59.5 -33.5q18 24 47.5 36t74.5 10v-84zM301 712v-116h-120
v116h120z" />
    <glyph glyph-name="Gcommaaccent" unicode="&#x122;" horiz-adv-x="667" 
d="M465 514q-25 54 -58 78t-87 24q-38 0 -66.5 -18.5t-47.5 -52.5t-28.5 -82.5t-9.5 -108.5q0 -114 40.5 -181t112.5 -67q68 0 108.5 40t42.5 103h-137v116h270v-365h-100v74q-44 -48 -87.5 -66t-100.5 -18q-74 0 -128 27.5t-89 76t-52.5 114t-17.5 142.5q0 69 14.5 137.5
t49.5 122.5t92.5 88t144.5 34q54 0 97 -14t75.5 -38.5t54.5 -58t35 -73.5zM315 -143h-44v98h100v-96l-38 -87h-49z" />
    <glyph glyph-name="gcommaaccent" unicode="&#x123;" horiz-adv-x="500" 
d="M214 10q-26 0 -42.5 -6.5t-27 -15.5t-14.5 -19.5t-4 -18.5q0 -30 30 -44t108 -14q30 0 50.5 6.5t33 15.5t18 19t5.5 17q0 9 -7.5 19.5t-26 19.5t-48.5 15t-75 6zM322 352q0 36 -25 61t-60 25q-40 0 -65 -25t-25 -61t25 -61t65 -25q35 0 60 25t25 61zM488 446
q-22 0 -44 -1.5t-36 -10.5q12 -17 20 -39.5t8 -52.5q0 -37 -12.5 -67.5t-37 -53t-61 -35t-85.5 -12.5q-41 0 -69 -5t-28 -27q0 -21 25.5 -28t63.5 -9.5t82 -5t82 -15.5t63.5 -40.5t25.5 -79.5q0 -28 -14.5 -55.5t-44 -49.5t-75 -35.5t-107.5 -13.5q-105 0 -168.5 31
t-63.5 93q0 24 8.5 42t22 30t30 18t33.5 6v2q-9 6 -22 12t-25.5 15t-21 22.5t-8.5 34.5q0 19 9.5 35t22.5 28.5t26.5 20.5t22.5 11q-32 26 -54.5 58t-22.5 80q0 34 13 66.5t39 58t64 41t89 15.5q33 0 68.5 -12.5t59.5 -33.5q18 24 47.5 36t74.5 10v-84zM242 657h37v-85h-87
v83l39 77h43z" />
    <glyph glyph-name="Hcircumflex" unicode="&#x124;" horiz-adv-x="722" 
d="M84 0v722h138v-288h278v288h138v-722h-138v310h-278v-310h-138zM426 908l115 -146h-113l-63 82l-64 -82h-112l113 146h124z" />
    <glyph glyph-name="hcircumflex" unicode="&#x125;" 
d="M64 0v722h124v-258q29 24 66.5 45t83.5 21q78 0 116 -47t38 -127v-356h-124v338q0 53 -16 72.5t-48 19.5q-41 0 -70.5 -18.5t-45.5 -36.5v-375h-124zM330 908l115 -146h-113l-63 82l-64 -82h-112l113 146h124z" />
    <glyph glyph-name="Hbar" unicode="&#x126;" horiz-adv-x="722" 
d="M84 0v722h138v-124h278v124h138v-722h-138v263h-278v-263h-138zM222 378h278v122h-278v-122z" />
    <glyph glyph-name="hbar" unicode="&#x127;" 
d="M64 0v581h-56v87h56v54h124v-54h145v-87h-145v-122q29 24 66.5 45t83.5 21q78 0 116 -47t38 -127v-351h-124v333q0 53 -16 72.5t-48 19.5q-41 0 -70.5 -18.5t-45.5 -36.5v-370h-124z" />
    <glyph glyph-name="Itilde" unicode="&#x128;" horiz-adv-x="333" 
d="M97 0v722h138v-722h-138zM349 898q-5 -23 -13 -45t-21 -39t-31.5 -27.5t-45.5 -10.5q-19 0 -38.5 5.5t-38.5 12t-37 12t-33 5.5q-20 0 -30 -12t-16 -29h-62q3 23 11.5 45t23 39t34 27.5t45.5 10.5q20 0 40 -6t38 -12.5t34 -12.5t28 -6q18 0 30.5 13t16.5 30h65z" />
    <glyph glyph-name="itilde" unicode="&#x129;" horiz-adv-x="278" 
d="M201 0h-124v520h124v-520zM324 722q-5 -23 -13 -45t-21 -39t-31.5 -27.5t-45.5 -10.5q-19 0 -38.5 5.5t-38.5 12t-37 12t-33 5.5q-20 0 -30 -12t-16 -29h-62q3 23 11.5 45t23 39t34 27.5t45.5 10.5q20 0 40 -6t38 -12.5t34 -12.5t28 -6q18 0 30.5 13t16.5 30h65z" />
    <glyph glyph-name="Imacron" unicode="&#x12a;" horiz-adv-x="333" 
d="M97 0v722h138v-722h-138zM-6 794v74h346v-74h-346z" />
    <glyph glyph-name="imacron" unicode="&#x12b;" horiz-adv-x="278" 
d="M201 0h-124v520h124v-520zM-31 618v74h346v-74h-346z" />
    <glyph glyph-name="Iogonek" unicode="&#x12e;" horiz-adv-x="333" 
d="M97 0v722h138v-722h-20q-8 -3 -19 -9q-21 -12 -38.5 -27t-28.5 -35t-11 -45q0 -23 15.5 -35.5t32.5 -12.5q23 0 41.5 8.5t39.5 22.5l20 -36q-32 -23 -60.5 -35t-66.5 -12q-45 0 -74.5 22.5t-29.5 65.5q0 38 18 64.5t46 44.5q19 11 42 19h-45z" />
    <glyph glyph-name="iogonek" unicode="&#x12f;" horiz-adv-x="278" 
d="M201 0h-14q-8 -3 -19 -9q-21 -12 -38.5 -27t-28.5 -35t-11 -45q0 -23 15.5 -35.5t32.5 -12.5q23 0 41.5 8.5t39.5 22.5l20 -36q-32 -23 -60.5 -35t-66.5 -12q-45 0 -74.5 22.5t-29.5 65.5q0 38 18 64.5t46 44.5q19 11 42 19h-37v520h124v-520zM77 616v116h124v-116h-124z
" />
    <glyph glyph-name="Idotaccent" unicode="&#x130;" horiz-adv-x="333" 
d="M97 0v722h138v-722h-138zM226 888v-116h-120v116h120z" />
    <glyph glyph-name="dotlessi" unicode="&#x131;" horiz-adv-x="278" 
d="M201 0h-124v520h124v-520z" />
    <glyph glyph-name="Jcircumflex" unicode="&#x134;" horiz-adv-x="444" 
d="M90 158q18 -30 35 -41t40 -11q25 0 41 19t16 67v530h138v-527q0 -102 -49 -153.5t-146 -51.5q-57 0 -98.5 25.5t-71.5 71.5zM346 908l115 -146h-113l-63 82l-64 -82h-112l113 146h124z" />
    <glyph glyph-name="jcircumflex" unicode="&#x135;" horiz-adv-x="278" 
d="M3 -81q10 -1 18.5 -2t22.5 -1q22 0 34 13t12 51v540h124v-560q0 -80 -34.5 -115t-111.5 -35q-35 0 -65 8v101zM207 732l115 -146h-113l-63 82l-64 -82h-112l113 146h124z" />
    <glyph glyph-name="Kcommaaccent" unicode="&#x136;" horiz-adv-x="667" 
d="M78 0v722h138v-321l241 321h159l-205 -271l238 -451h-153l-179 343l-101 -126v-217h-138zM333 -143h-44v98h100v-96l-38 -87h-49z" />
    <glyph glyph-name="kcommaaccent" unicode="&#x137;" horiz-adv-x="500" 
d="M64 0v722h124v-403h4l153 201h142l-153 -194l164 -326h-132l-115 233l-63 -73v-160h-124zM257 -143h-44v98h100v-96l-38 -87h-49z" />
    <glyph glyph-name="Lacute" unicode="&#x139;" 
d="M78 0v722h138v-606h314v-116h-452zM339 908l-146 -146h-102l94 146h154z" />
    <glyph glyph-name="lacute" unicode="&#x13a;" horiz-adv-x="278" 
d="M77 0v722h124v-722h-124zM309 908l-146 -146h-102l94 146h154z" />
    <glyph glyph-name="Lcommaaccent" unicode="&#x13b;" 
d="M78 0v722h138v-606h314v-116h-452zM293 -143h-44v98h100v-96l-38 -87h-49z" />
    <glyph glyph-name="lcommaaccent" unicode="&#x13c;" horiz-adv-x="278" 
d="M77 0v722h124v-722h-124zM133 -143h-44v98h100v-96l-38 -87h-49z" />
    <glyph glyph-name="Lcaron" unicode="&#x13d;" 
d="M78 0v722h138v-606h314v-116h-452zM315 624h-44v98h100v-96l-38 -87h-49z" />
    <glyph glyph-name="lcaron" unicode="&#x13e;" horiz-adv-x="278" 
d="M77 0v722h124v-722h-124zM280 624h-44v98h100v-96l-38 -87h-49z" />
    <glyph glyph-name="Ldot" unicode="&#x13f;" 
d="M78 0v722h138v-606h314v-116h-452zM422 427v-116h-120v116h120z" />
    <glyph glyph-name="ldot" unicode="&#x140;" horiz-adv-x="428" 
d="M77 0v722h124v-722h-124zM393 427v-116h-120v116h120z" />
    <glyph glyph-name="Lslash" unicode="&#x141;" 
d="M216 116h314v-116h-452v290l-78 -32v100l78 32v332h138v-276l158 64v-100l-158 -64v-230z" />
    <glyph glyph-name="lslash" unicode="&#x142;" horiz-adv-x="278" 
d="M201 0h-124v317l-77 -39v100l77 39v305h124v-243l77 39v-100l-77 -39v-379z" />
    <glyph glyph-name="Nacute" unicode="&#x143;" horiz-adv-x="722" 
d="M81 0v722h144l284 -492h2v492h130v-722h-133l-295 514h-2v-514h-130zM533 908l-146 -146h-102l94 146h154z" />
    <glyph glyph-name="nacute" unicode="&#x144;" 
d="M64 0v520h114v-56q35 24 74.5 45t85.5 21q78 0 116 -47t38 -127v-356h-124v338q0 53 -16 72.5t-48 19.5q-41 0 -70.5 -18.5t-45.5 -36.5v-375h-124zM457 732l-146 -146h-102l94 146h154z" />
    <glyph glyph-name="Ncommaaccent" unicode="&#x145;" horiz-adv-x="722" 
d="M81 0v722h144l284 -492h2v492h130v-722h-133l-295 514h-2v-514h-130zM358 -143h-44v98h100v-96l-38 -87h-49z" />
    <glyph glyph-name="ncommaaccent" unicode="&#x146;" 
d="M64 0v520h114v-56q35 24 74.5 45t85.5 21q78 0 116 -47t38 -127v-356h-124v338q0 53 -16 72.5t-48 19.5q-41 0 -70.5 -18.5t-45.5 -36.5v-375h-124zM270 -143h-44v98h100v-96l-38 -87h-49z" />
    <glyph glyph-name="Ncaron" unicode="&#x147;" horiz-adv-x="722" 
d="M81 0v722h144l284 -492h2v492h130v-722h-133l-295 514h-2v-514h-130zM303 762l-113 146h112l64 -82l63 82h113l-115 -146h-124z" />
    <glyph glyph-name="ncaron" unicode="&#x148;" 
d="M64 0v520h114v-56q35 24 74.5 45t85.5 21q78 0 116 -47t38 -127v-356h-124v338q0 53 -16 72.5t-48 19.5q-41 0 -70.5 -18.5t-45.5 -36.5v-375h-124zM219 586l-113 146h112l64 -82l63 82h113l-115 -146h-124z" />
    <glyph glyph-name="Omacron" unicode="&#x14c;" horiz-adv-x="667" 
d="M498 361q0 128 -40 191.5t-125 63.5t-125 -63.5t-40 -191.5q-2 -128 38.5 -191.5t126.5 -63.5q85 0 125 63.5t40 191.5zM636 361q0 -178 -77 -274.5t-226 -96.5t-226 96.5t-77 274.5t77 274.5t226 96.5t226 -96.5t77 -274.5zM161 794v74h346v-74h-346z" />
    <glyph glyph-name="omacron" unicode="&#x14d;" horiz-adv-x="500" 
d="M352 260q0 88 -25 129t-77 41t-77 -41t-25 -129t25 -129t77 -41t77 41t25 129zM24 260q0 62 15.5 112t44.5 85t71 54t95 19t95 -19t71 -54t44.5 -85t15.5 -112t-15.5 -112t-44.5 -85t-71 -54t-95 -19t-95 19t-71 54t-44.5 85t-15.5 112zM80 618v74h346v-74h-346z" />
    <glyph glyph-name="Obreve" unicode="&#x14e;" horiz-adv-x="667" 
d="M498 361q0 128 -40 191.5t-125 63.5t-125 -63.5t-40 -191.5q-2 -128 38.5 -191.5t126.5 -63.5q85 0 125 63.5t40 191.5zM636 361q0 -178 -77 -274.5t-226 -96.5t-226 96.5t-77 274.5t77 274.5t226 96.5t226 -96.5t77 -274.5zM501 908q-11 -75 -56 -110.5t-120 -35.5
q-71 0 -114 37t-48 109h66q2 -21 12 -34.5t24.5 -21.5t32 -11t35.5 -3q41 0 67 14t35 56h66z" />
    <glyph glyph-name="obreve" unicode="&#x14f;" horiz-adv-x="500" 
d="M352 260q0 88 -25 129t-77 41t-77 -41t-25 -129t25 -129t77 -41t77 41t25 129zM24 260q0 62 15.5 112t44.5 85t71 54t95 19t95 -19t71 -54t44.5 -85t15.5 -112t-15.5 -112t-44.5 -85t-71 -54t-95 -19t-95 19t-71 54t-44.5 85t-15.5 112zM422 732q-11 -75 -56 -110.5
t-120 -35.5q-71 0 -114 37t-48 109h66q2 -21 12 -34.5t24.5 -21.5t32 -11t35.5 -3q41 0 67 14t35 56h66z" />
    <glyph glyph-name="Ohungarumlaut" unicode="&#x150;" horiz-adv-x="667" 
d="M498 361q0 128 -40 191.5t-125 63.5t-125 -63.5t-40 -191.5q-2 -128 38.5 -191.5t126.5 -63.5q85 0 125 63.5t40 191.5zM636 361q0 -178 -77 -274.5t-226 -96.5t-226 96.5t-77 274.5t77 274.5t226 96.5t226 -96.5t77 -274.5zM409 908l-132 -146h-98l76 146h154zM603 908
l-146 -146h-102l94 146h154z" />
    <glyph glyph-name="ohungarumlaut" unicode="&#x151;" horiz-adv-x="500" 
d="M352 260q0 88 -25 129t-77 41t-77 -41t-25 -129t25 -129t77 -41t77 41t25 129zM24 260q0 62 15.5 112t44.5 85t71 54t95 19t95 -19t71 -54t44.5 -85t15.5 -112t-15.5 -112t-44.5 -85t-71 -54t-95 -19t-95 19t-71 54t-44.5 85t-15.5 112zM319 732l-132 -146h-98l76 146
h154zM513 732l-146 -146h-102l94 146h154z" />
    <glyph glyph-name="OE" unicode="&#x152;" horiz-adv-x="944" 
d="M459 456q0 48 -7.5 79t-24.5 49t-43.5 25t-63.5 7q-35 0 -65.5 -9.5t-54 -37t-36.5 -77.5t-13 -131t13 -131t36.5 -77.5t54 -37t65.5 -9.5q37 0 63.5 7t43.5 25t24.5 49t7.5 79v190zM813 318h-216v-202h323v-116h-403q-44 0 -87 -5t-88 -5q-87 0 -149.5 24t-102.5 71
t-58.5 116t-18.5 160t18.5 160t58.5 116t102.5 71t149.5 24q32 0 73 -5t85 -5h403v-116h-306v-172h216v-116z" />
    <glyph glyph-name="oe" unicode="&#x153;" horiz-adv-x="778" 
d="M636 324q-2 54 -27.5 84t-67.5 30t-67.5 -30t-27.5 -84h190zM136 260q0 -88 24.5 -129t73.5 -41t73.5 41t24.5 129t-24.5 129t-73.5 41t-73.5 -41t-24.5 -129zM446 240q2 -81 28 -115.5t82 -34.5q35 0 58 17.5t46 44.5l90 -56q-36 -56 -87.5 -81t-114.5 -25
q-51 0 -89 18.5t-64 50.5q-27 -35 -68.5 -52t-94.5 -17q-51 0 -91.5 19t-69 54t-44 85t-15.5 112t15.5 112t44 85t69 54t91.5 19t92 -16t69 -51q53 67 147 67q50 0 89 -19.5t66 -52.5t41 -76.5t14 -90.5v-51h-304z" />
    <glyph glyph-name="Racute" unicode="&#x154;" horiz-adv-x="667" 
d="M216 406h102q81 0 111 25.5t30 76.5t-30 76.5t-87 25.5h-126v-204zM78 0v722h288q61 0 105 -16.5t71.5 -45.5t41 -68t13.5 -84q1 -67 -32.5 -117t-99.5 -69l159 -322h-153l-136 294h-119v-294h-138zM481 908l-146 -146h-102l94 146h154z" />
    <glyph glyph-name="racute" unicode="&#x155;" horiz-adv-x="333" 
d="M56 0v520h114v-89h2q23 47 56.5 72t89.5 27v-131q-5 1 -10 1h-12q-23 0 -44 -11.5t-37 -26t-25.5 -28t-9.5 -18.5v-316h-124zM373 732l-146 -146h-102l94 146h154z" />
    <glyph glyph-name="Rcommaaccent" unicode="&#x156;" horiz-adv-x="667" 
d="M216 406h102q81 0 111 25.5t30 76.5t-30 76.5t-87 25.5h-126v-204zM78 0v722h288q61 0 105 -16.5t71.5 -45.5t41 -68t13.5 -84q1 -67 -32.5 -117t-99.5 -69l159 -322h-153l-136 294h-119v-294h-138zM326 -143h-44v98h100v-96l-38 -87h-49z" />
    <glyph glyph-name="rcommaaccent" unicode="&#x157;" horiz-adv-x="333" 
d="M56 0v520h114v-89h2q23 47 56.5 72t89.5 27v-131q-5 1 -10 1h-12q-23 0 -44 -11.5t-37 -26t-25.5 -28t-9.5 -18.5v-316h-124zM111 -143h-44v98h100v-96l-38 -87h-49z" />
    <glyph glyph-name="Rcaron" unicode="&#x158;" horiz-adv-x="667" 
d="M216 406h102q81 0 111 25.5t30 76.5t-30 76.5t-87 25.5h-126v-204zM78 0v722h288q61 0 105 -16.5t71.5 -45.5t41 -68t13.5 -84q1 -67 -32.5 -117t-99.5 -69l159 -322h-153l-136 294h-119v-294h-138zM253 762l-113 146h112l64 -82l63 82h113l-115 -146h-124z" />
    <glyph glyph-name="rcaron" unicode="&#x159;" horiz-adv-x="333" 
d="M56 0v520h114v-89h2q23 47 56.5 72t89.5 27v-131q-5 1 -10 1h-12q-23 0 -44 -11.5t-37 -26t-25.5 -28t-9.5 -18.5v-316h-124zM128 586l-113 146h112l64 -82l63 82h113l-115 -146h-124z" />
    <glyph glyph-name="Sacute" unicode="&#x15a;" horiz-adv-x="611" 
d="M419 530q-16 42 -48 68t-81 26q-45 0 -74 -19t-29 -61q0 -31 27.5 -51.5t69 -38t89.5 -35.5t89.5 -44.5t69 -65.5t27.5 -97q0 -112 -66 -167t-187 -55q-44 0 -86 12t-78 34t-63.5 54t-42.5 71l114 50q25 -51 60.5 -82t96.5 -31q26 0 48 5t38.5 16.5t26 30t9.5 44.5
q0 35 -27.5 58.5t-69 42.5t-89.5 37t-89.5 43.5t-69 62t-27.5 92.5q0 48 19 86t51 63.5t74 39t89 13.5q87 0 155 -42t100 -121zM479 908l-146 -146h-102l94 146h154z" />
    <glyph glyph-name="sacute" unicode="&#x15b;" horiz-adv-x="444" 
d="M317 383q-19 20 -43.5 37.5t-53.5 17.5q-36 0 -53 -14t-17 -37q0 -22 19.5 -35.5t48 -24.5t62.5 -22.5t62.5 -31t48 -50t19.5 -77.5q0 -41 -14.5 -70t-40 -48.5t-60.5 -28.5t-76 -9q-63 0 -112.5 27t-84.5 78l83 62q22 -30 51.5 -52.5t69.5 -22.5q33 0 53.5 16.5
t20.5 42.5q0 22 -19.5 36t-48 25t-62.5 23.5t-62.5 31.5t-48 48t-19.5 74q0 36 14 64.5t38 47.5t55 29t65 10q52 0 100.5 -19.5t82.5 -59.5zM395 732l-146 -146h-102l94 146h154z" />
    <glyph glyph-name="Scircumflex" unicode="&#x15c;" horiz-adv-x="611" 
d="M419 530q-16 42 -48 68t-81 26q-45 0 -74 -19t-29 -61q0 -31 27.5 -51.5t69 -38t89.5 -35.5t89.5 -44.5t69 -65.5t27.5 -97q0 -112 -66 -167t-187 -55q-44 0 -86 12t-78 34t-63.5 54t-42.5 71l114 50q25 -51 60.5 -82t96.5 -31q26 0 48 5t38.5 16.5t26 30t9.5 44.5
q0 35 -27.5 58.5t-69 42.5t-89.5 37t-89.5 43.5t-69 62t-27.5 92.5q0 48 19 86t51 63.5t74 39t89 13.5q87 0 155 -42t100 -121zM370 908l115 -146h-113l-63 82l-64 -82h-112l113 146h124z" />
    <glyph glyph-name="scircumflex" unicode="&#x15d;" horiz-adv-x="444" 
d="M317 383q-19 20 -43.5 37.5t-53.5 17.5q-36 0 -53 -14t-17 -37q0 -22 19.5 -35.5t48 -24.5t62.5 -22.5t62.5 -31t48 -50t19.5 -77.5q0 -41 -14.5 -70t-40 -48.5t-60.5 -28.5t-76 -9q-63 0 -112.5 27t-84.5 78l83 62q22 -30 51.5 -52.5t69.5 -22.5q33 0 53.5 16.5
t20.5 42.5q0 22 -19.5 36t-48 25t-62.5 23.5t-62.5 31.5t-48 48t-19.5 74q0 36 14 64.5t38 47.5t55 29t65 10q52 0 100.5 -19.5t82.5 -59.5zM282 732l115 -146h-113l-63 82l-64 -82h-112l113 146h124z" />
    <glyph glyph-name="Scedilla" unicode="&#x15e;" horiz-adv-x="611" 
d="M189 -161q13 -5 35 -10.5t43 -5.5q25 0 38.5 8t13.5 34q0 20 -13 25.5t-30 5.5q-11 0 -22.5 -2t-19.5 -4l-20 20l54 82q-25 3 -48 10q-42 12 -78 34t-63.5 54t-42.5 71l114 50q25 -51 60.5 -82t96.5 -31q26 0 48 5t38.5 16.5t26 30t9.5 44.5q0 35 -27.5 58.5t-69 42.5
t-89.5 37t-89.5 43.5t-69 62t-27.5 92.5q0 48 19 86t51 63.5t74 39t89 13.5q87 0 155 -42t100 -121l-126 -39q-16 42 -48 68t-81 26q-45 0 -74 -19t-29 -61q0 -31 27.5 -51.5t69 -38t89.5 -35.5t89.5 -44.5t69 -65.5t27.5 -97q0 -112 -66 -167q-63 -52 -174 -55l-36 -53
q20 5 36 5q34 0 61 -18t27 -58q0 -25 -12 -43t-30.5 -29.5t-41 -17t-43.5 -5.5q-29 0 -56 7.5t-53 18.5z" />
    <glyph glyph-name="scedilla" unicode="&#x15f;" horiz-adv-x="444" 
d="M112 -161q13 -5 35 -10.5t43 -5.5q25 0 38.5 8t13.5 34q0 20 -13 25.5t-30 5.5q-11 0 -22.5 -2t-19.5 -4l-20 20l53 82q-46 5 -84 25q-49 27 -84 78l83 62q22 -30 51.5 -52.5t69.5 -22.5q33 0 53.5 16.5t20.5 42.5q0 22 -19.5 36t-48 25t-62.5 23.5t-62.5 31.5t-48 48
t-19.5 74q0 36 14 64.5t38 47.5t55 29t65 10q52 0 100.5 -19.5t82.5 -59.5l-78 -68q-19 20 -43.5 37.5t-53.5 17.5q-36 0 -53 -14t-17 -37q0 -22 19.5 -35.5t48 -24.5t62.5 -22.5t62.5 -31t48 -50t19.5 -77.5q0 -41 -14.5 -70t-40 -48.5t-60.5 -28.5q-25 -6 -53 -8l-36 -54
q20 5 36 5q34 0 61 -18t27 -58q0 -25 -12 -43t-30.5 -29.5t-41 -17t-43.5 -5.5q-29 0 -56 7.5t-53 18.5z" />
    <glyph glyph-name="Scaron" unicode="&#x160;" horiz-adv-x="611" 
d="M419 530q-16 42 -48 68t-81 26q-45 0 -74 -19t-29 -61q0 -31 27.5 -51.5t69 -38t89.5 -35.5t89.5 -44.5t69 -65.5t27.5 -97q0 -112 -66 -167t-187 -55q-44 0 -86 12t-78 34t-63.5 54t-42.5 71l114 50q25 -51 60.5 -82t96.5 -31q26 0 48 5t38.5 16.5t26 30t9.5 44.5
q0 35 -27.5 58.5t-69 42.5t-89.5 37t-89.5 43.5t-69 62t-27.5 92.5q0 48 19 86t51 63.5t74 39t89 13.5q87 0 155 -42t100 -121zM243 762l-113 146h112l64 -82l63 82h113l-115 -146h-124z" />
    <glyph glyph-name="scaron" unicode="&#x161;" horiz-adv-x="444" 
d="M317 383q-19 20 -43.5 37.5t-53.5 17.5q-36 0 -53 -14t-17 -37q0 -22 19.5 -35.5t48 -24.5t62.5 -22.5t62.5 -31t48 -50t19.5 -77.5q0 -41 -14.5 -70t-40 -48.5t-60.5 -28.5t-76 -9q-63 0 -112.5 27t-84.5 78l83 62q22 -30 51.5 -52.5t69.5 -22.5q33 0 53.5 16.5
t20.5 42.5q0 22 -19.5 36t-48 25t-62.5 23.5t-62.5 31.5t-48 48t-19.5 74q0 36 14 64.5t38 47.5t55 29t65 10q52 0 100.5 -19.5t82.5 -59.5zM159 586l-113 146h112l64 -82l63 82h113l-115 -146h-124z" />
    <glyph glyph-name="Tcommaaccent" unicode="&#x162;" 
d="M536 723v-116h-189v-607h-138v607h-189v116h516zM270 -143h-44v98h100v-96l-38 -87h-49z" />
    <glyph glyph-name="tcommaaccent" unicode="&#x163;" horiz-adv-x="333" 
d="M84 520v172h124v-172h102v-100h-102v-294q0 -21 11 -28.5t34 -7.5q14 0 28.5 3.5t28.5 6.5v-102q-26 -3 -49 -5.5t-49 -2.5q-69 0 -98.5 32t-29.5 88v310h-72v100h72zM177 -143h-44v98h100v-96l-38 -87h-49z" />
    <glyph glyph-name="Tcaron" unicode="&#x164;" 
d="M536 723v-116h-189v-607h-138v607h-189v116h516zM216 762l-113 146h112l64 -82l63 82h113l-115 -146h-124z" />
    <glyph glyph-name="tcaron" unicode="&#x165;" horiz-adv-x="333" 
d="M284 632h-38v90h91v-88l-38 -80h-43zM84 520v172h124v-172h102v-100h-102v-294q0 -21 11 -28.5t34 -7.5q14 0 28.5 3.5t28.5 6.5v-102q-26 -3 -49 -5.5t-49 -2.5q-69 0 -98.5 32t-29.5 88v310h-72v100h72z" />
    <glyph glyph-name="Tbar" unicode="&#x166;" 
d="M536 723v-113h-189v-134h151v-106h-151v-370h-138v370h-151v106h151v134h-189v113h516z" />
    <glyph glyph-name="tbar" unicode="&#x167;" horiz-adv-x="333" 
d="M84 520v172h124v-172h102v-96h-102v-84h84v-92h-84v-122q0 -21 11 -28.5t34 -7.5q14 0 28.5 3.5t28.5 6.5v-102q-26 -3 -49 -5.5t-49 -2.5q-69 0 -98.5 32t-29.5 88v138h-63v92h63v84h-72v96h72z" />
    <glyph glyph-name="Utilde" unicode="&#x168;" horiz-adv-x="722" 
d="M500 722h138v-452q0 -79 -22.5 -132.5t-61 -86.5t-88.5 -47t-105 -14t-105 14t-88.5 47t-61 86.5t-22.5 132.5v452h138v-458q0 -88 34.5 -123t104.5 -35t104.5 35t34.5 123v458zM544 898q-5 -23 -13 -45t-21 -39t-31.5 -27.5t-45.5 -10.5q-19 0 -38.5 5.5t-38.5 12
t-37 12t-33 5.5q-20 0 -30 -12t-16 -29h-62q3 23 11.5 45t23 39t34 27.5t45.5 10.5q20 0 40 -6t38 -12.5t34 -12.5t28 -6q18 0 30.5 13t16.5 30h65z" />
    <glyph glyph-name="utilde" unicode="&#x169;" 
d="M492 520v-520h-114v56q-35 -24 -74.5 -45t-85.5 -21q-78 0 -116 47t-38 127v356h124v-338q0 -53 16 -72.5t48 -19.5q41 0 70.5 18.5t45.5 36.5v375h124zM463 722q-5 -23 -13 -45t-21 -39t-31.5 -27.5t-45.5 -10.5q-19 0 -38.5 5.5t-38.5 12t-37 12t-33 5.5q-20 0 -30 -12
t-16 -29h-62q3 23 11.5 45t23 39t34 27.5t45.5 10.5q20 0 40 -6t38 -12.5t34 -12.5t28 -6q18 0 30.5 13t16.5 30h65z" />
    <glyph glyph-name="Umacron" unicode="&#x16a;" horiz-adv-x="722" 
d="M500 722h138v-452q0 -79 -22.5 -132.5t-61 -86.5t-88.5 -47t-105 -14t-105 14t-88.5 47t-61 86.5t-22.5 132.5v452h138v-458q0 -88 34.5 -123t104.5 -35t104.5 35t34.5 123v458zM185 794v74h346v-74h-346z" />
    <glyph glyph-name="umacron" unicode="&#x16b;" 
d="M492 520v-520h-114v56q-35 -24 -74.5 -45t-85.5 -21q-78 0 -116 47t-38 127v356h124v-338q0 -53 16 -72.5t48 -19.5q41 0 70.5 18.5t45.5 36.5v375h124zM106 618v74h346v-74h-346z" />
    <glyph glyph-name="Ubreve" unicode="&#x16c;" horiz-adv-x="722" 
d="M500 722h138v-452q0 -79 -22.5 -132.5t-61 -86.5t-88.5 -47t-105 -14t-105 14t-88.5 47t-61 86.5t-22.5 132.5v452h138v-458q0 -88 34.5 -123t104.5 -35t104.5 35t34.5 123v458zM527 908q-11 -75 -56 -110.5t-120 -35.5q-71 0 -114 37t-48 109h66q2 -21 12 -34.5
t24.5 -21.5t32 -11t35.5 -3q41 0 67 14t35 56h66z" />
    <glyph glyph-name="ubreve" unicode="&#x16d;" 
d="M492 520v-520h-114v56q-35 -24 -74.5 -45t-85.5 -21q-78 0 -116 47t-38 127v356h124v-338q0 -53 16 -72.5t48 -19.5q41 0 70.5 18.5t45.5 36.5v375h124zM450 732q-11 -75 -56 -110.5t-120 -35.5q-71 0 -114 37t-48 109h66q2 -21 12 -34.5t24.5 -21.5t32 -11t35.5 -3
q41 0 67 14t35 56h66z" />
    <glyph glyph-name="Uring" unicode="&#x16e;" horiz-adv-x="722" 
d="M500 722h138v-452q0 -79 -22.5 -132.5t-61 -86.5t-88.5 -47t-105 -14t-105 14t-88.5 47t-61 86.5t-22.5 132.5v452h138v-458q0 -88 34.5 -123t104.5 -35t104.5 35t34.5 123v458zM305 869q0 -23 15.5 -38.5t38.5 -15.5t38.5 15.5t15.5 38.5t-15.5 38.5t-38.5 15.5
t-38.5 -15.5t-15.5 -38.5zM251 869q0 22 8.5 42t23 34.5t34 23t42.5 8.5q22 0 42 -8.5t34.5 -23t23 -34.5t8.5 -42q0 -23 -8.5 -42.5t-23 -34t-34.5 -23t-42 -8.5q-23 0 -42.5 8.5t-34 23t-23 34t-8.5 42.5z" />
    <glyph glyph-name="uring" unicode="&#x16f;" 
d="M492 520v-520h-114v56q-35 -24 -74.5 -45t-85.5 -21q-78 0 -116 47t-38 127v356h124v-338q0 -53 16 -72.5t48 -19.5q41 0 70.5 18.5t45.5 36.5v375h124zM225 693q0 -23 15.5 -38.5t38.5 -15.5t38.5 15.5t15.5 38.5t-15.5 38.5t-38.5 15.5t-38.5 -15.5t-15.5 -38.5z
M171 693q0 22 8.5 42t23 34.5t34 23t42.5 8.5q22 0 42 -8.5t34.5 -23t23 -34.5t8.5 -42q0 -23 -8.5 -42.5t-23 -34t-34.5 -23t-42 -8.5q-23 0 -42.5 8.5t-34 23t-23 34t-8.5 42.5z" />
    <glyph glyph-name="Uhungarumlaut" unicode="&#x170;" horiz-adv-x="722" 
d="M500 722h138v-452q0 -79 -22.5 -132.5t-61 -86.5t-88.5 -47t-105 -14t-105 14t-88.5 47t-61 86.5t-22.5 132.5v452h138v-458q0 -88 34.5 -123t104.5 -35t104.5 35t34.5 123v458zM434 908l-132 -146h-98l76 146h154zM628 908l-146 -146h-102l94 146h154z" />
    <glyph glyph-name="uhungarumlaut" unicode="&#x171;" 
d="M492 520v-520h-114v56q-35 -24 -74.5 -45t-85.5 -21q-78 0 -116 47t-38 127v356h124v-338q0 -53 16 -72.5t48 -19.5q41 0 70.5 18.5t45.5 36.5v375h124zM350 732l-132 -146h-98l76 146h154zM544 732l-146 -146h-102l94 146h154z" />
    <glyph glyph-name="Uogonek" unicode="&#x172;" horiz-adv-x="722" 
d="M500 722h138v-452q0 -79 -22.5 -132.5t-61.5 -86.5q-32 -28 -73 -43q-20 -8 -44 -18q-24 -11 -45.5 -26t-36 -35t-14.5 -45q0 -23 15 -35.5t37 -12.5q24 0 50 14t46 27l20 -36q-34 -23 -71.5 -40t-79.5 -17q-43 0 -74 22t-31 67q0 38 23 64t57 44q10 5 20 9q-51 1 -97 14
q-50 14 -88.5 47t-61 86.5t-22.5 132.5v452h138v-458q0 -88 34.5 -123t104.5 -35t104.5 35t34.5 123v458z" />
    <glyph glyph-name="uogonek" unicode="&#x173;" 
d="M492 520v-520h-21l-19 -9q-23 -12 -42 -27t-30.5 -35t-11.5 -45q0 -23 15 -35.5t32 -12.5q22 0 39 9t39 23l20 -36q-34 -23 -61.5 -35.5t-64.5 -12.5q-44 0 -73.5 22.5t-29.5 65.5q0 38 19.5 64.5t49.5 44.5q13 7 27 13v64q-37 -26 -76.5 -47t-85.5 -21q-78 0 -116 47
t-38 127v356h124v-338q0 -53 16 -72.5t48 -19.5q41 0 70.5 18.5t45.5 36.5v375h124z" />
    <glyph glyph-name="Wcircumflex" unicode="&#x174;" horiz-adv-x="833" 
d="M20 722h129l91 -487h2l103 487h142l95 -487h2l99 487h129l-150 -722h-140l-105 514h-2l-104 -514h-140zM482 908l115 -146h-113l-63 82l-64 -82h-112l113 146h124z" />
    <glyph glyph-name="wcircumflex" unicode="&#x175;" horiz-adv-x="667" 
d="M10 520h118l71 -324h2l75 324h115l72 -324h2l74 324h118l-134 -520h-112l-77 324h-2l-76 -324h-112zM398 732l115 -146h-113l-63 82l-64 -82h-112l113 146h124z" />
    <glyph glyph-name="Ycircumflex" unicode="&#x176;" 
d="M278 436l124 286h144l-199 -434v-288h-138v288l-199 434h144zM338 908l115 -146h-113l-63 82l-64 -82h-112l113 146h124z" />
    <glyph glyph-name="ycircumflex" unicode="&#x177;" horiz-adv-x="444" 
d="M10 -84q14 -3 26 -3.5t26 -0.5q32 0 51.5 9.5t30.5 31.5q9 19 14.5 32t5.5 29q0 14 -5.5 30t-10.5 32l-139 444h125l86 -320h2l89 320h124l-164 -521q-21 -56 -40.5 -92.5t-42.5 -58t-51.5 -30t-66.5 -8.5q-23 0 -36 1t-24 3v102zM283 732l115 -146h-113l-63 82l-64 -82
h-112l113 146h124z" />
    <glyph glyph-name="Ydieresis" unicode="&#x178;" 
d="M278 436l124 286h144l-199 -434v-288h-138v288l-199 434h144zM433 888v-116h-120v116h120zM243 888v-116h-120v116h120z" />
    <glyph glyph-name="Zacute" unicode="&#x179;" 
d="M530 0h-514v117l337 489h-314v116h488v-110l-349 -496h352v-116zM457 908l-146 -146h-102l94 146h154z" />
    <glyph glyph-name="zacute" unicode="&#x17a;" horiz-adv-x="444" 
d="M39 520h385v-88l-250 -332h252v-100h-408v88l251 332h-230v100zM411 732l-146 -146h-102l94 146h154z" />
    <glyph glyph-name="Zdotaccent" unicode="&#x17b;" 
d="M530 0h-514v117l337 489h-314v116h488v-110l-349 -496h352v-116zM348 888v-116h-120v116h120z" />
    <glyph glyph-name="zdotaccent" unicode="&#x17c;" horiz-adv-x="444" 
d="M39 520h385v-88l-250 -332h252v-100h-408v88l251 332h-230v100zM297 712v-116h-120v116h120z" />
    <glyph glyph-name="Zcaron" unicode="&#x17d;" 
d="M530 0h-514v117l337 489h-314v116h488v-110l-349 -496h352v-116zM215 762l-113 146h112l64 -82l63 82h113l-115 -146h-124z" />
    <glyph glyph-name="zcaron" unicode="&#x17e;" horiz-adv-x="444" 
d="M39 520h385v-88l-250 -332h252v-100h-408v88l251 332h-230v100zM159 586l-113 146h112l64 -82l63 82h113l-115 -146h-124z" />
    <glyph glyph-name="florin" unicode="&#x192;" horiz-adv-x="611" 
d="M77 -76q11 -3 23 -6.5t31 -3.5q11 0 20 4t17 19t16 44t19 79.5t25 125t34 180.5h-97v94h119q14 73 28.5 124.5t35.5 84.5t51.5 48t75.5 15q23 0 42 -2.5t36 -6.5l-16 -106q-12 5 -23 8t-24 3q-41 0 -57 -43.5t-26 -124.5h103v-94h-120q-19 -88 -32 -163t-25.5 -136
t-27.5 -108.5t-38 -79.5t-56 -49.5t-82 -19.5q-21 -1 -38 2t-33 6z" />
    <glyph glyph-name="Scommaaccent" unicode="&#x218;" horiz-adv-x="611" 
d="M419 530q-16 42 -48 68t-81 26q-45 0 -74 -19t-29 -61q0 -31 27.5 -51.5t69 -38t89.5 -35.5t89.5 -44.5t69 -65.5t27.5 -97q0 -112 -66 -167t-187 -55q-44 0 -86 12t-78 34t-63.5 54t-42.5 71l114 50q25 -51 60.5 -82t96.5 -31q26 0 48 5t38.5 16.5t26 30t9.5 44.5
q0 35 -27.5 58.5t-69 42.5t-89.5 37t-89.5 43.5t-69 62t-27.5 92.5q0 48 19 86t51 63.5t74 39t89 13.5q87 0 155 -42t100 -121zM293 -143h-44v98h100v-96l-38 -87h-49z" />
    <glyph glyph-name="scommaaccent" unicode="&#x219;" horiz-adv-x="444" 
d="M317 383q-19 20 -43.5 37.5t-53.5 17.5q-36 0 -53 -14t-17 -37q0 -22 19.5 -35.5t48 -24.5t62.5 -22.5t62.5 -31t48 -50t19.5 -77.5q0 -41 -14.5 -70t-40 -48.5t-60.5 -28.5t-76 -9q-63 0 -112.5 27t-84.5 78l83 62q22 -30 51.5 -52.5t69.5 -22.5q33 0 53.5 16.5
t20.5 42.5q0 22 -19.5 36t-48 25t-62.5 23.5t-62.5 31.5t-48 48t-19.5 74q0 36 14 64.5t38 47.5t55 29t65 10q52 0 100.5 -19.5t82.5 -59.5zM209 -143h-44v98h100v-96l-38 -87h-49z" />
    <glyph glyph-name="uni021A" unicode="&#x21a;" 
d="M536 723v-116h-189v-607h-138v607h-189v116h516zM270 -143h-44v98h100v-96l-38 -87h-49z" />
    <glyph glyph-name="uni021B" unicode="&#x21b;" horiz-adv-x="333" 
d="M84 520v172h124v-172h102v-100h-102v-294q0 -21 11 -28.5t34 -7.5q14 0 28.5 3.5t28.5 6.5v-102q-26 -3 -49 -5.5t-49 -2.5q-69 0 -98.5 32t-29.5 88v310h-72v100h72zM177 -143h-44v98h100v-96l-38 -87h-49z" />
    <glyph glyph-name="dotlessj" unicode="&#x237;" horiz-adv-x="278" 
d="M3 -81q10 -1 18.5 -2t22.5 -1q22 0 34 13t12 51v540h124v-560q0 -80 -34.5 -115t-111.5 -35q-35 0 -65 8v101z" />
    <glyph glyph-name="circumflex" unicode="&#x2c6;" horiz-adv-x="278" 
d="M200 732l115 -146h-113l-63 82l-64 -82h-112l113 146h124z" />
    <glyph glyph-name="caron" unicode="&#x2c7;" horiz-adv-x="278" 
d="M76 586l-113 146h112l64 -82l63 82h113l-115 -146h-124z" />
    <glyph glyph-name="uni02C9" unicode="&#x2c9;" horiz-adv-x="278" 
d="M-34 618v74h346v-74h-346z" />
    <glyph glyph-name="breve" unicode="&#x2d8;" horiz-adv-x="278" 
d="M308 732q-11 -75 -56 -110.5t-120 -35.5q-71 0 -114 37t-48 109h66q2 -21 12 -34.5t24.5 -21.5t32 -11t35.5 -3q41 0 67 14t35 56h66z" />
    <glyph glyph-name="dotaccent" unicode="&#x2d9;" horiz-adv-x="278" 
d="M199 712v-116h-120v116h120z" />
    <glyph glyph-name="ring" unicode="&#x2da;" horiz-adv-x="278" 
d="M85 693q0 -23 15.5 -38.5t38.5 -15.5t38.5 15.5t15.5 38.5t-15.5 38.5t-38.5 15.5t-38.5 -15.5t-15.5 -38.5zM31 693q0 22 8.5 42t23 34.5t34 23t42.5 8.5q22 0 42 -8.5t34.5 -23t23 -34.5t8.5 -42q0 -23 -8.5 -42.5t-23 -34t-34.5 -23t-42 -8.5q-23 0 -42.5 8.5t-34 23
t-23 34t-8.5 42.5z" />
    <glyph glyph-name="ogonek" unicode="&#x2db;" horiz-adv-x="278" 
d="M258 9q-20 -8 -44.5 -19t-46 -26t-36 -35t-14.5 -45q0 -23 15 -35.5t37 -12.5q24 0 50 14t46 27l20 -36q-34 -23 -71.5 -40t-79.5 -17q-43 0 -74 22t-31 67q0 38 23 64t57.5 43.5t74.5 27t74 13.5v-12z" />
    <glyph glyph-name="tilde" unicode="&#x2dc;" horiz-adv-x="278" 
d="M322 722q-5 -23 -13 -45t-21 -39t-31.5 -27.5t-45.5 -10.5q-19 0 -38.5 5.5t-38.5 12t-37 12t-33 5.5q-20 0 -30 -12t-16 -29h-62q3 23 11.5 45t23 39t34 27.5t45.5 10.5q20 0 40 -6t38 -12.5t34 -12.5t28 -6q18 0 30.5 13t16.5 30h65z" />
    <glyph glyph-name="hungarumlaut" unicode="&#x2dd;" horiz-adv-x="278" 
d="M186 732l-132 -146h-98l76 146h154zM380 732l-146 -146h-102l94 146h154z" />
    <glyph glyph-name="uni0394" unicode="&#x394;" horiz-adv-x="683" 
d="M334 588l-180 -490h370zM9 0l272 712h110l284 -712h-666z" />
    <glyph glyph-name="uni03A9" unicode="&#x3a9;" horiz-adv-x="757" 
d="M426 0v188q39 8 69 27.5t50 47.5t30.5 63t10.5 74q0 46 -15.5 86.5t-43.5 70.5t-67.5 47.5t-86.5 17.5q-48 0 -87 -17.5t-67.5 -48t-44 -71.5t-15.5 -87q0 -81 39.5 -136t118.5 -74v-188h-271v91h183v47q-46 15 -80 41t-57 61t-34.5 77t-11.5 89q0 69 25.5 127t70 99.5
t103.5 65t127 23.5t127.5 -22.5t103.5 -63.5t69.5 -98.5t25.5 -127.5q0 -47 -11 -90t-34 -78.5t-57.5 -62t-81.5 -40.5v-47h184v-91h-272z" />
    <glyph glyph-name="uni03BC" unicode="&#x3bc;" 
d="M492 520v-520h-114v56q-35 -24 -74.5 -45t-85.5 -21q-8 0 -15.5 0.5t-14.5 1.5v-182h-124v710h124v-338q0 -53 16 -72.5t48 -19.5q41 0 70.5 18.5t45.5 36.5v375h124z" />
    <glyph glyph-name="pi" unicode="&#x3c0;" horiz-adv-x="589" 
d="M566 13q-21 -10 -40.5 -15t-42.5 -5q-33 0 -53 10t-30.5 27.5t-13.5 41.5t-3 51v264h-211v-387h-101v387h-70v96h562v-96h-79v-249q0 -11 0.5 -21.5t4.5 -19t11.5 -13.5t21.5 -5q21 0 44 10v-76z" />
    <glyph glyph-name="endash" unicode="&#x2013;" horiz-adv-x="500" 
d="M0 218v84h500v-84h-500z" />
    <glyph glyph-name="emdash" unicode="&#x2014;" horiz-adv-x="1000" 
d="M0 218v84h1000v-84h-1000z" />
    <glyph glyph-name="quoteleft" unicode="&#x2018;" horiz-adv-x="278" 
d="M148 582h60v-142h-138v142l64 150h65z" />
    <glyph glyph-name="quoteright" unicode="&#x2019;" horiz-adv-x="278" 
d="M130 580h-60v142h138v-142l-64 -150h-65z" />
    <glyph glyph-name="quotesinglbase" unicode="&#x201a;" horiz-adv-x="278" 
d="M130 0h-60v142h138v-142l-64 -150h-65z" />
    <glyph glyph-name="quotedblleft" unicode="&#x201c;" horiz-adv-x="444" 
d="M120 582h60v-142h-138v142l64 150h65zM343 582h60v-142h-138v142l64 150h65z" />
    <glyph glyph-name="quotedblright" unicode="&#x201d;" horiz-adv-x="444" 
d="M324 580h-60v142h138v-142l-64 -150h-65zM101 580h-60v142h138v-142l-64 -150h-65z" />
    <glyph glyph-name="quotedblbase" unicode="&#x201e;" horiz-adv-x="444" 
d="M324 0h-60v142h138v-142l-64 -150h-65zM101 0h-60v142h138v-142l-64 -150h-65z" />
    <glyph glyph-name="dagger" unicode="&#x2020;" horiz-adv-x="500" 
d="M432 464l-158 30l26 -161l-32 -407h-36l-32 407l26 161l-158 -30v106l158 -30l-26 192h100l-26 -192l158 30v-106z" />
    <glyph glyph-name="daggerdbl" unicode="&#x2021;" horiz-adv-x="500" 
d="M226 502l-158 -30v106l158 -30l-26 184h100l-26 -184l158 30v-106l-158 30l26 -173l-26 -173l158 30v-106l-158 30l26 -184h-100l26 184l-158 -30v106l158 -30l-26 173z" />
    <glyph glyph-name="bullet" unicode="&#x2022;" horiz-adv-x="500" 
d="M69 361q0 37 14 70t38.5 57.5t57 38.5t70.5 14q37 0 70 -14t58 -38.5t39 -57.5t14 -70q0 -38 -14 -70.5t-39 -57.5t-58 -39t-70 -14q-38 0 -70.5 14t-57 39t-38.5 57.5t-14 70.5z" />
    <glyph glyph-name="ellipsis" unicode="&#x2026;" horiz-adv-x="1000" 
d="M429 0v142h142v-142h-142zM96 0v142h142v-142h-142zM762 0v142h142v-142h-142z" />
    <glyph glyph-name="perthousand" unicode="&#x2030;" horiz-adv-x="1000" 
d="M838 214q-29 0 -47.5 -19t-18.5 -47t18.5 -47t47.5 -19t47.5 19t18.5 47t-18.5 47t-47.5 19zM477 214q-29 0 -47.5 -19t-18.5 -47t18.5 -47t47.5 -19t47.5 19t18.5 47t-18.5 47t-47.5 19zM162 640q-29 0 -47.5 -19t-18.5 -47t18.5 -47t47.5 -19t47.5 19t18.5 47t-18.5 47
t-47.5 19zM484 732h77l-408 -742h-77zM838 296q31 0 58 -11.5t47 -32t31.5 -47.5t11.5 -57t-11.5 -57t-31.5 -47.5t-47 -32t-58 -11.5t-58 11.5t-47 32t-31.5 47.5t-11.5 57t11.5 57t31.5 47.5t47 32t58 11.5zM477 296q31 0 58 -11.5t47 -32t31.5 -47.5t11.5 -57t-11.5 -57
t-31.5 -47.5t-47 -32t-58 -11.5t-58 11.5t-47 32t-31.5 47.5t-11.5 57t11.5 57t31.5 47.5t47 32t58 11.5zM162 722q31 0 58 -11.5t47 -32t31.5 -47.5t11.5 -57t-11.5 -57t-31.5 -47.5t-47 -32t-58 -11.5t-58 11.5t-47 32t-31.5 47.5t-11.5 57t11.5 57t31.5 47.5t47 32
t58 11.5z" />
    <glyph glyph-name="guilsinglleft" unicode="&#x2039;" horiz-adv-x="333" 
d="M161 420h112l-123 -163l123 -157h-112l-120 157z" />
    <glyph glyph-name="guilsinglright" unicode="&#x203a;" horiz-adv-x="333" 
d="M292 257l-120 -157h-112l123 157l-123 163h112z" />
    <glyph glyph-name="fraction" unicode="&#x2044;" horiz-adv-x="167" 
d="M246 732h88l-412 -742h-89z" />
    <glyph glyph-name="Euro" unicode="&#x20ac;" horiz-adv-x="611" 
d="M108 318q-1 11 -1 21v22v25h-75l25 94h60q23 122 95 187t186 65q64 0 109.5 -18.5t75.5 -46.5l-34 -123q-36 38 -71 57t-85 19q-53 0 -90.5 -35t-54.5 -105h284l-26 -94h-270v-68h251l-25 -94h-213q14 -54 49.5 -88t105.5 -34q34 0 73.5 9.5t71.5 37.5v-125
q-32 -17 -70.5 -25.5t-76.5 -8.5q-62 0 -109.5 17.5t-81.5 48.5t-56 74t-34 94h-89l26 94h50z" />
    <glyph glyph-name="afii61289" unicode="&#x2113;" horiz-adv-x="500" 
d="M440 48q-71 -62 -155 -62q-70 0 -110 37.5t-40 101.5v70l-57 -53h-2l-39 60l97 85v246q0 42 12 76.5t34 59t51 38.5t64 14q61 0 97.5 -38.5t36.5 -103.5q0 -76 -45.5 -151t-137.5 -159v-126q0 -22 6 -36.5t15.5 -23t21 -12t23.5 -3.5q41 0 88 38h2zM338 572q0 32 -12 53
t-32 21t-34 -23.5t-14 -68.5v-190q48 52 70 105.5t22 102.5z" />
    <glyph glyph-name="trademark" unicode="&#x2122;" horiz-adv-x="1000" 
d="M363 638h-121v-328h-100v328h-120v84h341v-84zM687 464h2l92 258h149v-412h-100v281l-4 2l-100 -283h-77l-100 282h-4v-282h-100v412h149z" />
    <glyph glyph-name="Omega" unicode="&#x2126;" horiz-adv-x="757" 
d="M426 0v188q39 8 69 27.5t50 47.5t30.5 63t10.5 74q0 46 -15.5 86.5t-43.5 70.5t-67.5 47.5t-86.5 17.5q-48 0 -87 -17.5t-67.5 -48t-44 -71.5t-15.5 -87q0 -81 39.5 -136t118.5 -74v-188h-271v91h183v47q-46 15 -80 41t-57 61t-34.5 77t-11.5 89q0 69 25.5 127t70 99.5
t103.5 65t127 23.5t127.5 -22.5t103.5 -63.5t69.5 -98.5t25.5 -127.5q0 -47 -11 -90t-34 -78.5t-57.5 -62t-81.5 -40.5v-47h184v-91h-272z" />
    <glyph glyph-name="estimated" unicode="&#x212e;" horiz-adv-x="600" 
d="M157 259v-181q59 -59 145 -59q63 0 109 28.5t84 91.5l35 -21q-23 -36 -46.5 -61.5t-51 -42t-59.5 -24t-71 -7.5q-59 0 -106.5 21.5t-81.5 59t-52 87.5t-18 108t18 108.5t52 87.5t81.5 58.5t106.5 21.5q58 0 105.5 -20.5t81.5 -57t53 -87t19 -111.5h-404zM448 295v145
q-63 60 -147 60t-144 -60v-145h291z" />
    <glyph glyph-name="partialdiff" unicode="&#x2202;" horiz-adv-x="548" 
d="M396 287q-26 31 -56.5 49t-72.5 18q-32 0 -55 -12t-39 -32t-23.5 -46t-7.5 -55q0 -27 7 -52.5t21 -45t36.5 -31.5t52.5 -12q36 0 62.5 19t43.5 48.5t25 64t7 64.5zM507 359q0 -63 -10 -129t-38 -119.5t-77 -88t-127 -34.5q-49 0 -89 17.5t-68 48t-43.5 72t-15.5 89.5
q0 47 15 87t43 69.5t67 46t87 16.5q43 0 79 -15t68 -43l1 30q1 37 -6.5 77.5t-26 75t-49 57t-75.5 22.5q-34 0 -63 -14t-55 -34l-57 66q41 32 79.5 48.5t91.5 16.5q77 0 128.5 -32t83 -84t44.5 -116.5t13 -129.5z" />
    <glyph glyph-name="Delta" unicode="&#x2206;" horiz-adv-x="683" 
d="M334 588l-180 -490h370zM9 0l272 712h110l284 -712h-666z" />
    <glyph glyph-name="product" unicode="&#x220f;" horiz-adv-x="737" 
d="M566 -214v902h-396v-902h-107v1000h611v-1000h-108z" />
    <glyph glyph-name="summation" unicode="&#x2211;" horiz-adv-x="643" 
d="M25 -214v86l306 419l-293 411v84h567v-98h-424l279 -396l-297 -409h455v-97h-593z" />
    <glyph glyph-name="minus" unicode="&#x2212;" horiz-adv-x="600" 
d="M40 206v108h520v-108h-520z" />
    <glyph glyph-name="uni2215" unicode="&#x2215;" horiz-adv-x="167" 
d="M246 732h88l-412 -742h-89z" />
    <glyph glyph-name="uni2219" unicode="&#x2219;" horiz-adv-x="305" 
d="M228 260q0 -32 -23 -54t-55 -22t-53 22t-21 54q0 31 21.5 53.5t52.5 22.5q32 0 55 -22t23 -54z" />
    <glyph glyph-name="radical" unicode="&#x221a;" horiz-adv-x="531" 
d="M332 -214h-101l-153 319l-50 -23l-40 85l143 65l133 -281l170 835h109z" />
    <glyph glyph-name="infinity" unicode="&#x221e;" horiz-adv-x="806" 
d="M348 258q-13 13 -29 28t-34 28t-38 21.5t-39 8.5q-36 0 -57 -25.5t-21 -59.5q0 -37 21.5 -60t59.5 -23q19 0 38.5 7.5t37 19.5t33.5 26.5t28 28.5zM675 259q0 37 -21 61.5t-59 24.5q-20 0 -39 -8.5t-36.5 -22t-33 -29l-28.5 -28.5q13 -14 29 -28.5t33.5 -26.5t37 -19.5
t40.5 -7.5q37 0 57 24.5t20 59.5zM761 262q0 -38 -11 -70.5t-32.5 -56.5t-52 -38t-69.5 -14q-31 0 -57.5 9.5t-50 25.5t-45 36t-40.5 41q-21 -21 -41.5 -41t-43 -35t-48.5 -24.5t-59 -9.5q-38 0 -69 13.5t-53 36.5t-33.5 55t-11.5 70q0 37 11.5 69t32.5 56t51.5 37.5
t68.5 13.5q32 0 59.5 -10t51 -26.5t44 -37.5t40.5 -44q19 22 40 43.5t45 38t51 27t58 10.5q38 0 68.5 -13.5t51.5 -37t32.5 -55.5t11.5 -69z" />
    <glyph glyph-name="integral" unicode="&#x222b;" horiz-adv-x="600" 
d="M474 713q0 -21 -15 -35t-36 -14q-22 0 -32 10t-15.5 22.5t-10 22.5t-13.5 10q-13 0 -16 -11t-3 -21q0 -33 1 -66.5t1 -66.5l1 -524q0 -39 -1.5 -83.5t-14.5 -82.5t-42 -63t-83 -25q-16 0 -34 4t-33 13t-25 22.5t-10 32.5q0 21 13 35t35 14q21 0 31.5 -10.5t16 -23
t9.5 -23t13 -10.5t13 5.5t5.5 13.5t1 16.5t-0.5 13.5q0 24 -1.5 48.5t-1.5 48.5v535q0 40 0.5 86.5t13 86t42 66t86.5 26.5q16 0 34.5 -4t34 -13t26 -23t10.5 -33z" />
    <glyph glyph-name="approxequal" unicode="&#x2248;" horiz-adv-x="600" 
d="M566 241q-3 -32 -12.5 -62t-26.5 -53.5t-43 -37.5t-63 -14q-30 0 -66 11t-71 23.5t-66.5 23.5t-53.5 11q-29 0 -45 -21.5t-20 -47.5h-68q3 31 12.5 61t26.5 54t42.5 38.5t61.5 14.5q32 0 65.5 -10.5t67 -23t66 -23t62.5 -10.5q29 0 44 20t20 46h67zM568 444
q-3 -32 -12.5 -62t-26.5 -53.5t-43 -37.5t-63 -14q-30 0 -66 11t-71 23.5t-66.5 23.5t-53.5 11q-29 0 -44.5 -21.5t-20.5 -47.5h-68q3 31 12 61t26.5 54t43 38.5t61.5 14.5q31 0 65 -10.5t67.5 -23t66.5 -23t62 -10.5t43.5 20t19.5 46h68z" />
    <glyph glyph-name="notequal" unicode="&#x2260;" horiz-adv-x="600" 
d="M274 99l-78 -152l-89 46l55 106h-122v102h173l61 117h-234v101h285l77 152l89 -45l-54 -107h122v-101h-174l-60 -117h234v-102h-285z" />
    <glyph glyph-name="lessequal" unicode="&#x2264;" horiz-adv-x="600" 
d="M40 -35v101h519v-101h-519zM40 272v103l519 179v-107l-381 -123l381 -117v-107z" />
    <glyph glyph-name="greaterequal" unicode="&#x2265;" horiz-adv-x="600" 
d="M40 -35v101h519v-101h-519zM40 100v107l380 117l-380 123v107l519 -179v-103z" />
    <glyph glyph-name="lozenge" unicode="&#x25ca;" horiz-adv-x="593" 
d="M295 646l-119 -290l119 -291l122 291zM343 -35h-95l-176 391l176 391h95l177 -391z" />
    <glyph glyph-name="grave.cap" unicode="&#xe300;" horiz-adv-x="278" 
d="M126 908l94 -146h-102l-146 146h154z" />
    <glyph glyph-name="acute.cap" unicode="&#xe301;" horiz-adv-x="278" 
d="M306 908l-146 -146h-102l94 146h154z" />
    <glyph glyph-name="circumflex.cap" unicode="&#xe302;" horiz-adv-x="278" 
d="M200 908l115 -146h-113l-63 82l-64 -82h-112l113 146h124z" />
    <glyph glyph-name="caron.cap" unicode="&#xe303;" horiz-adv-x="278" 
d="M76 762l-113 146h112l64 -82l63 82h113l-115 -146h-124z" />
    <glyph glyph-name="tilde.cap" unicode="&#xe304;" horiz-adv-x="278" 
d="M322 898q-5 -23 -13 -45t-21 -39t-31.5 -27.5t-45.5 -10.5q-19 0 -38.5 5.5t-38.5 12t-37 12t-33 5.5q-20 0 -30 -12t-16 -29h-62q3 23 11.5 45t23 39t34 27.5t45.5 10.5q20 0 40 -6t38 -12.5t34 -12.5t28 -6q18 0 30.5 13t16.5 30h65z" />
    <glyph glyph-name="dieresis.cap" unicode="&#xe305;" horiz-adv-x="278" 
d="M294 888v-116h-120v116h120zM104 888v-116h-120v116h120z" />
    <glyph glyph-name="macron.cap" unicode="&#xe306;" horiz-adv-x="278" 
d="M-34 794v74h346v-74h-346z" />
    <glyph glyph-name="breve.cap" unicode="&#xe307;" horiz-adv-x="278" 
d="M308 908q-11 -75 -56 -110.5t-120 -35.5q-71 0 -114 37t-48 109h66q2 -21 12 -34.5t24.5 -21.5t32 -11t35.5 -3q41 0 67 14t35 56h66z" />
    <glyph glyph-name="ring.cap" unicode="&#xe308;" horiz-adv-x="278" 
d="M85 869q0 -23 15.5 -38.5t38.5 -15.5t38.5 15.5t15.5 38.5t-15.5 38.5t-38.5 15.5t-38.5 -15.5t-15.5 -38.5zM31 869q0 22 8.5 42t23 34.5t34 23t42.5 8.5q22 0 42 -8.5t34.5 -23t23 -34.5t8.5 -42q0 -23 -8.5 -42.5t-23 -34t-34.5 -23t-42 -8.5q-23 0 -42.5 8.5t-34 23
t-23 34t-8.5 42.5z" />
    <glyph glyph-name="hungarumlaut.cap" unicode="&#xe309;" horiz-adv-x="278" 
d="M186 908l-132 -146h-98l76 146h154zM380 908l-146 -146h-102l94 146h154z" />
    <glyph glyph-name="dotaccent.cap" unicode="&#xe30a;" horiz-adv-x="278" 
d="M199 888v-116h-120v116h120z" />
    <glyph glyph-name="caron.alt" unicode="&#xe30b;" horiz-adv-x="278" 
d="M136 624h-44v98h100v-96l-38 -87h-49z" />
    <glyph glyph-name="commaaccent" unicode="&#xe30c;" horiz-adv-x="305" 
d="M132 -143h-44v98h100v-96l-38 -87h-49z" />
    <glyph glyph-name="commaaccent.alt" unicode="&#xe30d;" horiz-adv-x="278" 
d="M144 657h37v-85h-87v83l39 77h43z" />
    <glyph glyph-name="uniF8FF" unicode="&#xf8ff;" horiz-adv-x="512" 
d="M222 117v67h56v-67h-56zM225 234l-2 17q0 55 13 81t46 59q32 31 41 47.5t9 35.5q0 36 -22.5 60.5t-53.5 24.5t-53.5 -22t-28.5 -73l-50 8q7 71 44 104t91 33q53 0 88.5 -36t35.5 -95q0 -32 -12.5 -58.5t-50.5 -61.5q-37 -33 -43 -52t-6 -72h-46zM462 50v617h-412v-617
h412zM512 718v-718h-512v718h512z" />
    </font>
</defs>
</svg>
